PDA

View Full Version : October 6th, 2000 John Digweed + DJ Three



arielus
August 8, 2004, 01:38:31 PM
John Digweed tracklist

01. Rabbit In The Moon - Out Of Body Experience [Hardkiss]
02. Weekend World - The Word [Weekend World]
03. Skydiver - ID [Weekend World]
04. Universal Agents - East Of Washington [Ovum]
05. Peace Division pres. Dark Daze - Lottie's Vogue [Junior]
06. Innate - Changes (Killahurts Mix) [Platipus]
07. Datar - B (Danny's Space Terrace Mix) [Hooj Chaos]
08. PMT - Gyromancer [Acetate Limited]

John Digweed cuesheet

TITLE "John Digweed - Kiss 100 - 2000-10-06.mp3"
FILE "John Digweed - Kiss 100 - 2000-10-06.mp3" MP3

TRACK 01 AUDIO
TITLE "Rabbit In The Moon - Out Of Body Experience [Hardkiss]"
INDEX 01 00:00:00

TRACK 02 AUDIO
TITLE "Weekend World - The Word [Weekend World]"
INDEX 01 05:03:33

TRACK 03 AUDIO
TITLE "Skydiver - ID [Weekend World]"
INDEX 01 11:32:24

TRACK 04 AUDIO
TITLE "Universal Agents - East Of Washington [Ovum]"
INDEX 01 13:30:08

TRACK 05 AUDIO
TITLE "Peace Division pres. Dark Daze - Lottie's Vogue [Junior]"
INDEX 01 18:52:28

TRACK 06 AUDIO
TITLE "Innate - Changes (Killahurts Mix) [Platipus]"
INDEX 01 26:45:34

TRACK 07 AUDIO
TITLE "Datar - B (Danny's Space Terrace Mix) [Hooj Chaos]"
INDEX 01 34:18:30

TRACK 08 AUDIO
TITLE "PMT - Gyromancer [Acetate Limited]"
INDEX 01 42:41:56

DJ Three tracklist

01. Phillip Charles - Elektrik Dreamer [Shaboom]
02. Orb - Once More (Mark Pritchard Mix) [Island]
03. Barry Robb & Tim Skinner - Earshot [Grounded]
04. Second Hand Satellites - Orbit 1.1 (Accapella) [Hallucination] & Lypid - The Signs Alive (DJ Three & Q Burns Mix) [White Label]
05. Home & Garden pres. Nkemdi - An Invitation (John Creamer Mix) [Central Park]
06. Photek - Glamourama [Astralwerks]
07. Photek - Mine To Give (Original Mix) [Astralwerks]
08. ID - Toko 12 [Toko Records]

DJ Three cuesheet

TITLE "John Digweed - Kiss 100 - 2000-10-06 - DJ Three.mp3"
FILE "John Digweed - Kiss 100 - 2000-10-06 - DJ Three.mp3" MP3

TRACK 01 AUDIO
TITLE "Phillip Charles - Elektrik Dreamer [Shaboom]"
INDEX 01 00:00:00

TRACK 02 AUDIO
TITLE "Orb - Once More (Mark Pritchard Mix) [Island]"
INDEX 01 06:22:20

TRACK 03 AUDIO
TITLE "Barry Robb & Tim Skinner - Earshot [Grounded]"
INDEX 01 11:31:37

TRACK 04 AUDIO
TITLE "Second Hand Satellites - Orbit 1.1 (Accapella) [Hallucination] & Lypid - The Signs Alive (DJ Three & Q Burns Mix) [White Label]"
INDEX 01 17:17:20

TRACK 05 AUDIO
TITLE "Home & Garden pres. Nkemdi - An Invitation (John Creamer Mix) [Central Park]"
INDEX 01 24:17:25

TRACK 06 AUDIO
TITLE "Photek - Glamourama [Astralwerks]"
INDEX 01 28:30:54

TRACK 07 AUDIO
TITLE "Photek - Mine To Give (Original Mix) [Astralwerks]"
INDEX 01 32:13:48

TRACK 08 AUDIO
TITLE "ID - Toko 12 [Toko Records]"
INDEX 01 38:25:17

TRACK 09 AUDIO
TITLE "Data Munchamunkey - Operator (Rocket Mix) [Exist Dance]"
INDEX 01 44:52:53

TRACK 10 AUDIO
TITLE "Casa Del Sound - 003 (Accapella) [Casa Del Soul] & DJ Sense - Digital Spiratuality [Casa Del Soul]"
INDEX 01 49:52:19

TRACK 11 AUDIO
TITLE "Blu Peter - Biological Response (Peace Division Mix) [React]"
INDEX 01 55:42:03

thanks the sun and the sea for tracklists and cuesheets