PDA

View Full Version : November 10th, 2000 John Digweed + Kasey Taylor



arielus
August 8, 2004, 01:55:11 PM
John Digweed tracklist

01. Bedrock - Beautiful Strange (Rui Da Silva Mix)
02. Martin Accorsi & Barry Robb - Foundation [Sphere Recordings]
03. Mezz - The Desert [Technology Recordings]
04. Cevin Fisher - Love You Some More (Steve Lawler Remix) [Subversive]
05. Twilords - Twilords EP (The Friday Night Mix) [Modulations Records]
06. Quivver - One Last Time (Johnny G's Amityville Dub) [VC Recordings]
07. Pappa & Gibley - Void [Choo Choo]
08. Steve Porter - Innerpulse (Fade Mix) [Fade Recordings]

[B]John Digweed cuesheet

TITLE "John Digweed - Kiss 100 - 2000-11-10"
FILE "John Digweed - Kiss 100 - 2000-11-10.mp3" MP3

TRACK 01 AUDIO
TITLE "Bedrock - Beautiful Strange (Rui Da Silva Mix) "
INDEX 01 00:00:00

TRACK 02 AUDIO
TITLE "Martin Accorsi & Barry Robb - Foundation [Sphere Recordings]"
INDEX 01 09:26:17

TRACK 03 AUDIO
TITLE "Mezz - The Desert [Technology Recordings]"
INDEX 01 16:29:51

TRACK 04 AUDIO
TITLE "Cevin Fisher - Love You Some More (Steve Lawler Remix) [Subversive]"
INDEX 01 022:42:00

TRACK 05 AUDIO
TITLE "Modulations - The Twilords EP [waco Recordings]"
INDEX 01 29:59:55

TRACK 06 AUDIO
TITLE "Quivver - One Last Time (Johnny G's Amityville Dub) [VC Recordings]"
INDEX 01 37:45:37

TRACK 07 AUDIO
TITLE "Pappa & Gibley - Void [Choo Choo]"
INDEX 01 46:01:48

TRACK 08 AUDIO
TITLE "Steve Porter - Innerpulse (Fade Mix) [Fade Recordings]"
INDEX 01 54:42:00

[B]Kasie Taylor tracklist

01. John Digweed - Kiss 100 - 2000-11-10 - Kasey Taylor
02. Blakstone - One Thing [Vapour]
03. James Niche - Encounter
04. The Freak Project - Beat Of A Drum (Steve Lawler Mix) [Soul Brother]
05. PQM feat. Circa - The Flying Song [Marcu Shultz Mix) [Renaissance]
06. PMT - Gyromance [Acetate LTD]
07. Saints & Sinners - Pacific High
08. Schiller - Das Glockenspiel (Humate Mix) [Data]

Kasie Taylor cuesheet

TITLE "John Digweed - Kiss 100 - 2000-11-10 - Kasey Taylor"
FILE "John Digweed - Kiss 100 - 2000-11-10 - Kasey Taylor.mp3" MP3

TRACK 01 AUDIO
TITLE "Pound System - Never Come Down (Dark Alley Mix) [Zero Tolerance]"
INDEX 01 00:00:00

TRACK 02 AUDIO
TITLE "Blakstone - One Thing [Vapour]"
INDEX 01 09:08:26

TRACK 03 AUDIO
TITLE "James Niche - Encounter"
INDEX 01 13:53:08

TRACK 04 AUDIO
TITLE "The Freak Project - Beat Of A Drum (Steve Lawler Mix) [Soul Brother]"
INDEX 01 18:57:45

TRACK 05 AUDIO
TITLE "PQM feat. Circa - The Flying Song [Marcu Shultz Mix) [Renaissance]"
INDEX 01 25:17:08

TRACK 06 AUDIO
TITLE "PMT - Gyromance [Acetate LTD]"
INDEX 01 31:37:29

TRACK 07 AUDIO
TITLE "Saints & Sinners - Pacific High"
INDEX 01 35:57:42

TRACK 08 AUDIO
TITLE "Schiller - Das Glockenspiel (Humate Mix) [Data]"
INDEX 01 44:58:48

TRACK 09 AUDIO
TITLE "Koma & Bones - Face Facets (Ocean Wave Mix)"
INDEX 01 52:31:37

thanks the sun and the sea for tracklists and cuesheets