PDA

View Full Version : November 24th, 2000 John Digweed + Chris Fortier



arielus
August 8, 2004, 02:04:47 PM
John Digweed tracklist

01. Kraftwerk - Expo (Francois K & Rob Rives Mix) [EMI]
02. Smart Alex - Chinz Ninja (Underground Sound of Lisbon Mix) [Euka House]
03. Pitch Black - Come To Me [Rhythm Syndicate]
04. Halo & Hipp-E & Tony - Dub Me Some'tin Fresh [Yoshitoshi]
05. Pete Heller pres. Stylus Trouble - Sputnik [Junior Boys Own]
06. Ortus - Resolve [Airgap]
07. Layo & Bushwacka - Mongoloid [End Recordings]
08. Sven Vath - My Name Is Barbarella (Nalin & Kane Mix) [Club Culture]

John Digweed cuesheet

TITLE "John Digweed - Kiss 100 - 2000-11-24"
FILE "John Digweed - Kiss 100 - 2000-11-24.mp3" MP3

TRACK 01 AUDIO
TITLE "Kraftwerk - Expo (Francois K & Rob Rives Mix) [EMI]"
INDEX 01 00:00:00

TRACK 02 AUDIO
TITLE "Smart Alex - Chinz Ninja (Underground Sound of Lisbon Mix) [Euka House]"
INDEX 01 07:30:50

TRACK 03 AUDIO
TITLE "Pitch Black - Come To Me [Rhythm Syndicate]"
INDEX 01 14:48:54

TRACK 04 AUDIO
TITLE "Halo & Hipp-E & Tony - Dub Me Some'tin Fresh [Yoshitoshi]"
INDEX 01 020:50:07

TRACK 05 AUDIO
TITLE "Pete Heller pres. Stylus Trouble - Sputnik [Junior Boys Own]"
INDEX 01 28:30:50

TRACK 06 AUDIO
TITLE "Ortus - Resolve [Airgap]"
INDEX 01 38:22:24

TRACK 07 AUDIO
TITLE "Layo & Bushwacka - Untitled [Unknown]"
INDEX 01 45:18:07

TRACK 08 AUDIO
TITLE "Sven Vath - My Name Is Barbarella (Nalin & Kane Mix) [Club Culture]"
INDEX 01 51:09:39

Chris Fortier tracklist

01. Sean Cusick - Of Course
02. Donna Lewis - Take Me Over [Sold Out]
03. Kolo - Imagined [Fade Recordings]
04. Jimmy Van M - Sanctuary
05. Brain Stillwater - 13 [Undercurrent]
06. Quivver - One Last Time (Johnny G's Amityville Dub) [VC Recordings]
07. Chab - Matica [Undercurrent Music]
08. Steve Porter - Innerpulse (Fade Mix) [Fade Records]
09. Luzon - Baguio Track (Saeed & Palash Mix) [Yoshitoshi]

[B]Chris Fortier cuesheet

TITLE "John Digweed - Kiss 100 - 2000-11-24 - Chris Fortier"
FILE "John Digweed - Kiss 100 - 2000-11-24 - Chris Fortier.mp3" MP3

TRACK 01 AUDIO
TITLE "Sean Cusick - Of Course"
INDEX 01 00:00:00

TRACK 02 AUDIO
TITLE "Donna Lewis - Take Me Over [Sold Out]"
INDEX 01 03:39:40

TRACK 03 AUDIO
TITLE "Kolo - Imagined [Fade Recordings]"
INDEX 01 10:20:28

TRACK 04 AUDIO
TITLE "Jimmy Van M - Sanctuary "
INDEX 01 17:30:03

TRACK 05 AUDIO
TITLE "Brain Stillwater - 13 [Undercurrent]"
INDEX 01 25:29:40

TRACK 06 AUDIO
TITLE "Quivver - One Last Time (Johnny G's Amityville Dub) [VC Recordings]"
INDEX 01 31:31:42

TRACK 07 AUDIO
TITLE "Chab - Matica [Undercurrent Music]"
INDEX 01 38:32:59

TRACK 08 AUDIO
TITLE "Steve Porter - Innerpulse (Fade Mix) [Fade Records]"
INDEX 01 44:58:16

TRACK 09 AUDIO
TITLE "Luzon - Baguio Track (Saeed & Palash Mix) [Yoshitoshi]"
INDEX 01 52:36:08

[B]thanks the sun and the sea for tracklists and cuesheets