Tracklist

Pt1:

01 - Stef & 16 bit Lolitas - Kiss n tell
02 - Stef & 16 bit Lolitas - Vera para me
03 - Dark room dubs vol 8
04 - Jaywest - The other side
05 - Peace Division - What isthat sound (King Unique remix)
06 - Weekend world - Unknown
07 - Barry Gilbey - Plastic man
08 - Unknown - Humbled

Pt2:

01 - Bart van Wissen - Getting closer
02 - Kintar - Dreaming with TLV
03 - Nukem - Backstage
04 - K pax - Mindkiller
05 - Toes 009 - Untitled
06 - Matthew Dekay - Bad
07 - Son Kite - Focus (Shiloh remix)

Cuesheet

TITLE "Resident live from London Jan - 29, 2005 CD1 (Metro 95.1 FM Buenos Aires) DJ_Spiker"
PERFORMER "Hernan Cattaneo"
FILE "Resident live from London Jan - 29, 2005 CD1 (Metro 95.1 FM Buenos Aires) DJ_Spiker.mp3" MP3
TRACK 01 AUDIO
TITLE "Kiss n tell"
PERFORMER "Stef &16 Bit Lolitas"
INDEX 01 00:00:00
TRACK 02 AUDIO
TITLE "Vera para me"
PERFORMER "Stef &16 Bit Lolitas"
INDEX 01 08:52:33
TRACK 03 AUDIO
TITLE "Dubs vol 8"
PERFORMER "Dark Room"
INDEX 01 16:48:10
TRACK 04 AUDIO
TITLE "The other side"
PERFORMER "Jaywest"
INDEX 01 23:00:00
TRACK 05 AUDIO
TITLE "What Is that sound (King Unique)"
PERFORMER "Peace Division"
INDEX 01 29:34:30
TRACK 06 AUDIO
TITLE "Unknown"
PERFORMER "Weekend World"
INDEX 01 37:00:42
TRACK 07 AUDIO
TITLE "Plastic Man"
PERFORMER "Barry Gilbey"
INDEX 01 41:45:30
TRACK 08 AUDIO
TITLE "Humbled"
PERFORMER "Unknown"
INDEX 01 48:30:15


TITLE "Resident live from London Jan - 29, 2005 CD2 (Metro 95.1 FM Buenos Aires) DJ_Spiker"
PERFORMER "Hernan Cattaneo"
FILE "Resident live from London Jan - 29, 2005 CD2 (Metro 95.1 FM Buenos Aires) DJ_Spiker.mp3" MP3
TRACK 01 AUDIO
TITLE "Getting closer"
PERFORMER "Bart Van Wissen"
INDEX 01 00:00:00
TRACK 02 AUDIO
TITLE "Dreaming with tlv"
PERFORMER "Kintar"
INDEX 01 07:09:00
TRACK 03 AUDIO
TITLE "Backstage"
PERFORMER "Nukem"
INDEX 01 15:40:25
TRACK 04 AUDIO
TITLE "Mindkiller"
PERFORMER "K Pax"
INDEX 01 24:17:25
TRACK 05 AUDIO
TITLE "Untitled"
PERFORMER "Toes 009"
INDEX 01 29:57:45
TRACK 06 AUDIO
TITLE "Bad"
PERFORMER "Matthew Dekay"
INDEX 01 40:29:40
TRACK 07 AUDIO
TITLE "Focus (Shiloh)"
PERFORMER "Son Kite"
INDEX 01 47:38:14

Thanks to DJ Spiker for the cuesheet