Tracklist

Pt1:

01 - Sancho - Sunday grooves
02 - Ward & Jay West - The station
03 - Jay West & Diego Cid - Take control
04 - Hernan Cerbello - Mind vision
05 - Baund / Pasqua - Nomination
06 - Somnus corp - Black magic love
07 - Marris - Mind the 5th
08 - Maxine Vegas & Deep Mariano - Fantastique

Pt2:

01 - DJ Rai - You never show
02 - Timo Maas - Unknown
03 - Medway - The baseline track 2005 (Jiva)
04 - Jimmy van M - Ecpis. seth (Vogt remix)
05 - Blake Jarrell - Thumpie (Steve May remix)
06 - Bionic rockers - Cosmic blast
07 - Descent - Running the orbit
08 - Andy Ling - Fixation (Evo vs. Hamel remix)

Cuesheet

TITLE "Hernan Cattaneo - Resident Live From London - Feb 19, 2005 CD1"
FILE "08 - Hernan Cattaneo - Resident Live From London - Feb 19, 2005 CD1 (Metro 95.1 FM Buenos Aires) [alejandro84].mp3" MP3
TRACK 01 AUDIO
TITLE "Sancho - Sunday Grooves"
INDEX 01 00:00:00
TRACK 02 AUDIO
TITLE "Ward & Jay West - The Station"
INDEX 01 08:08:30
TRACK 03 AUDIO
TITLE "Jay West & Diego Cid - Take Control"
INDEX 01 13:38:18
TRACK 04 AUDIO
TITLE "Hernan Cerbello - Mind Vision"
INDEX 01 18:53:63
TRACK 05 AUDIO
TITLE "Baund & Pasqua - Nomination"
INDEX 01 24:51:91
TRACK 06 AUDIO
TITLE "Somnus Corp - Blackmagiclove"
INDEX 01 31:06:16
TRACK 07 AUDIO
TITLE "Marris - Mind The 5th"
INDEX 01 39:51:17
TRACK 08 AUDIO
TITLE "Maxine Vegas & Deep Mariano - Fantastique"
INDEX 01 49:04:18

Part2

TITLE "Hernan Cattaneo - Resident Live From London - Feb 19, 2005 CD2"
FILE "08 - Hernan Cattaneo - Resident Live From London - Feb 19, 2005 CD2 (Metro 95.1 FM Buenos Aires) [alejandro84].mp3" MP3
TRACK 01 AUDIO
TITLE "DJ Rai - You Never Show"
INDEX 01 00:00:00
TRACK 02 AUDIO
TITLE "Timo Maas - OCB (Unreleased Mix)"
INDEX 01 06:34:10
TRACK 03 AUDIO
TITLE "Medway - The Baseline Track 2005 (Jiva Remix)"
INDEX 01 13:01:92
TRACK 04 AUDIO
TITLE "Jimmy Van M - Ecpis. (Seth Vogt Remix)"
INDEX 01 20:46:06
TRACK 05 AUDIO
TITLE "Blake Jarrell - Thumpie (S.May Remix)"
INDEX 01 24:51:80
TRACK 06 AUDIO
TITLE "Bionic Rockers - Cosmic Blast"
INDEX 01 31:04:41
TRACK 07 AUDIO
TITLE "Descent - Running The Orbit"
INDEX 01 40:22:39
TRACK 08 AUDIO
TITLE "Andy Ling - Fixation (Evo vs. Hamel Remix)"
INDEX 01 49:04:18

Thanks to DJ Spiker for the cuesheet