Tracklist:

Pt1:

01 - Terry Granty - I'll kill you
02 - Disco Stu & The kid - Dissilusioned
03 - Glove feat. Julia W - Wunderbar
04 - Aldrin & Akien - Dig this
05 - Tag - Fire (Philip Emanuel remix)
06 - Niki B & Christian E.F.F.E. - Sometimes
07 - Diego Velasco - When gibbons attack! (Kriece remix)

Pt2:

01 - Don Patrick - End of days
02 - Digital Witchcraft - Fingerpain (Gaston Laterza remix)
03 - Somnus corp & Deepmariano - Unknown
04 - Dousk - Unknown
05 - Artistic noise - Devils bum (Simuck remix)
06 - Lens - Let the light in (Jaytech remix)
07 - Logistic Sounds - Be free

Cuesheet:

FILE "HERNAN CATTANEO RESIDENT APRIL 23, 2005 CD1.mp3" MP3
TRACK 01 AUDIO
INDEX 01 00:00:00
TRACK 02 AUDIO
INDEX 01 07:43:00
TRACK 03 AUDIO
INDEX 01 16:31:00
TRACK 04 AUDIO
INDEX 01 24:48:00
TRACK 05 AUDIO
INDEX 01 30:56:00
TRACK 06 AUDIO
INDEX 01 39:36:00
TRACK 07 AUDIO
INDEX 01 49:36:00




FILE "HERNAN CATTANEO RESIDENT APRIL 23, 2005 CD2.mp3" MP3
TRACK 01 AUDIO
INDEX 01 00:00:00
TRACK 02 AUDIO
INDEX 01 09:55:00
TRACK 03 AUDIO
INDEX 01 18:10:00
TRACK 04 AUDIO
INDEX 01 23:12:00
TRACK 05 AUDIO
INDEX 01 32:06:00
TRACK 06 AUDIO
INDEX 01 39:36:00
TRACK 07 AUDIO
INDEX 01 47:32:00

Thanks to chiguy2891 for the cuesheet.