Tracklist

Pt1:

01 ? Habersham - Expansion
02 ? Kriece - Heron castle
03 - Randall Jones - Cultural assertion (new mix)
04 ? DJ Guy - Not done yet
05 ? Mercurio - In the sky
06 - Kasey Taylor & Meehan - Simplicity
07 - Damian DP ? 0115 (Dario F remix)

Pt2:

01 - Nathan Fake - Sky was pink (James Holden remix)
02 - Mick Burns - See me fall
03 ? Ridgewalkeers ? Find
04 ? Subsky - Second day on earth
05 - Pole Folder - Protected
06 ? Slacker - Unknown
07 - Phunk police - Falling stars
08 ? Marris ? Someday (Oliverio+MOS remix)

Cuesheet

TITLE "Resident Live From London Metrodance 95.1 FM Buenos Aires 24.07.2004 CD1 [DJ_Spiker]"
PERFORMER "Hernan Cattaneo"
TRACK 01 AUDIO
TITLE "01 - Habersham - Expansion"
INDEX 01 00:00:00
TRACK 02 AUDIO
TITLE "02 - Kriece - Heron Castle"
INDEX 01 07:40:00
TRACK 03 AUDIO
TITLE "03 - Randall Jones - Cultural Assertion (New Mix)"
INDEX 01 14:06:00
TRACK 04 AUDIO
TITLE "04 - DJ Guy - Not Done Yet"
INDEX 01 22:24:00
TRACK 05 AUDIO
TITLE "05 - Mercurio - In The Sky"
INDEX 01 23:16:40
TRACK 06 AUDIO
TITLE "06 - Kasey Taylor & Meehan - Simplicity"
INDEX 01 33:10:40
TRACK 07 AUDIO
TITLE "06 - Damian DP - 0115 (Dario F)"
INDEX 01 42:18:59


TITLE "Resident Live From London Metrodance 95.1 FM Buenos Aires 24.07.2004 CD2 [DJ_Spiker]"
PERFORMER "Hernan Cattaneo"
TRACK 01 AUDIO
TITLE "01 - Nathan Fake-sky Was Pink (Holden)"
INDEX 01 00:00:00
TRACK 02 AUDIO
TITLE "02 - Mic Burns - See Me Fall"
INDEX 01 09:23:15
TRACK 03 AUDIO
TITLE "03 - Ridgewalkeers - Find"
INDEX 01 15:40:59
TRACK 04 AUDIO
TITLE "04 - Subsky - Second Day on Earth"
INDEX 01 24:14:00
TRACK 05 AUDIO
TITLE "05 - Pole Folder - Protected"
INDEX 01 28:49:49
TRACK 06 AUDIO
TITLE "06 - Slacker - Unknown"
INDEX 01 37:27:40
TRACK 07 AUDIO
TITLE "07 - Phunk Police - Falling Stars"
INDEX 01 44:04:35

Thanks to DJ Spiker for the cuesheet