Tracklist

Pt1:

01 - The plugin cats - What's real
02 - Evan Marcus - Tofu
03 - John Creamer & Stephane K - Wish you were here (Jayt's 4am wishfull vocal mix)
04 - Damian DP - Because i love you
05 - Frederico Epis - Miles away
06 - O.T.E - Melbourne (PQM remix)
07 - Mike Brin - Astounding vision

Pt2:

01 - Alican & Soner - Manna (Lanning)
02 - Alican & Soner - Manna
03 - Chab - You and me
04 - James Zabiela - Skanksuary
05 - Vorotsov - Say breathe! (R:tem dub)
06 - Jack Henney - Me & my moog (Cass & Mangan remix)
07 - Oliverio - Bbm (Hernan & Tonks remix)

Cuesheet

Part 1:

TITLE "2005-05-14 Hernan Cattaneo - Metro 95.1 [mn] Part 1"
PERFORMER "Hernan Cattaneo"
FILE "2005-05-14 Hernan Cattaneo - Metro 95.1 [mn] Part 1.mp3" MP3
TRACK 01 AUDIO
PERFORMER "01."
INDEX 01 00:00:00
TRACK 02 AUDIO
PERFORMER "02."
INDEX 01 07:55:00
TRACK 03 AUDIO
PERFORMER "03."
INDEX 01 14:08:00
TRACK 04 AUDIO
PERFORMER "04."
INDEX 01 22:02:00
TRACK 05 AUDIO
PERFORMER "05."
INDEX 01 30:34:00
TRACK 06 AUDIO
PERFORMER "06."
INDEX 01 40:23:00
TRACK 07 AUDIO
PERFORMER "07."
INDEX 01 50:21:00

Part 2:

TITLE "2005-05-14 Hernan Cattaneo - Metro 95.1 [mn] Part 2"
PERFORMER "Hernan Cattaneo"
FILE "2005-05-14 Hernan Cattaneo - Metro 95.1 [mn] Part 2.mp3" MP3
TRACK 01 AUDIO
PERFORMER "01."
INDEX 01 00:00:00
TRACK 02 AUDIO
PERFORMER "02."
INDEX 01 09:07:00
TRACK 03 AUDIO
PERFORMER "03."
INDEX 01 17:00:00
TRACK 04 AUDIO
PERFORMER "04."
INDEX 01 24:42:00
TRACK 05 AUDIO
PERFORMER "05."
INDEX 01 32:14:00
TRACK 06 AUDIO
PERFORMER "06."
INDEX 01 37:40:00
TRACK 07 AUDIO
PERFORMER "07."
INDEX 01 43:30:00

Thanks to Romanek for the cuesheet.