Tracklist

Pt1:

01 - Josel & Pedro - Dark lights
02 - DJ Tarkan - Unknown
03 - Paolo Mojo - Motor city (Jamie Anderson remix)
04 - PJ Davy - Bolly fella
05 - Muzzak - Faith
06 - Bush people - Nothing safe
07 - Mirabeau ? Innerlove (Hydrophonix remix)
08 - James Talk - House rhythm

PT2:

01 - Stian Klo - Zpper boy
02 - Trafik - Surrender (dub)
03 - Trafik feat. Rachel Lamb - Surrender (Trafik's no retreat, no surrender mix)
04 - Matthew Dekay - Digifruitella
05 - Nick & John Dalangelis - Quiet
06 - Blue Haze - Into nothing (Dalangelis mix)

Cuesheet

FILE "05-07-02 Hernan Cattaneo - Metro 95.1 [mn] part1.mp3" MP3
TRACK 01 AUDIO
PERFORMER "JOSEL AND PEDRO"
TITLE "DARK LIGHTS"
INDEX 01 00:00:00
TRACK 02 AUDIO
PERFORMER "DJ TARKAN"
TITLE "UNKNOWN"
INDEX 01 08:00:00
TRACK 03 AUDIO
PERFORMER "PAOLO MOJO"
TITLE "MOTOR CITY (JAMIE ANDERSON REMIX)"
INDEX 01 15:01:00
TRACK 04 AUDIO
PERFORMER "PJ DAVY"
TITLE "BOLLY FELLA"
INDEX 01 24:15:00
TRACK 05 AUDIO
PERFORMER "MUZZAK"
TITLE "FAITH"
INDEX 01 30:33:00
TRACK 06 AUDIO
PERFORMER "BUSH PEOPLE"
TITLE "NOTHING SAFE"
INDEX 01 35:54:00
TRACK 07 AUDIO
PERFORMER "MIRABEAU"
TITLE "INNERLOVER-HYDROPHONIX"
INDEX 01 41:54:00
TRACK 08 AUDIO
PERFORMER "JAMES TALK"
TITLE "HOUSE RHYTHM"
INDEX 01 49:53:00


FILE "05-07-02 Hernan Cattaneo - Metro 95.1 [mn] part2.mp3" MP3
TRACK 01 AUDIO
PERFORMER "STIAN KLO"
TITLE "ZIPPER BOY"
INDEX 01 00:00:00
TRACK 02 AUDIO
PERFORMER "TRAFIK"
TITLE "SURRENDER (DUB)"
INDEX 01 08:13:00
TRACK 03 AUDIO
PERFORMER "TRAFIK FEAT. RACHEL LAMB"
TITLE "SURRENDER (TRAFIK'S NO RETREAT, NO SURRENDER MIX)"
INDEX 01 15:37:00
TRACK 04 AUDIO
PERFORMER "MATTHEW DEKAY"
TITLE "DIGIFRUITELLA"
INDEX 01 24:19:00
TRACK 05 AUDIO
PERFORMER "NICK AND JOHN DALANGELIS"
TITLE "QUIET"
INDEX 01 32:43:00
TRACK 06 AUDIO
PERFORMER "BLUE HAZE"
TITLE "INTO NOTHING (DALANGELIS MIX)"
INDEX 01 41:43:00

Thanks to chiguy2891 for the cuesheet.