John Digweed tracklist

01. Amalgamation Of Sounds - Latmo [Airtight]
02. Soul Dharma - Flower (Scuba Mix)
03. Ananda Project - Glory Glory (Karma Dublick Mix) [Nite Grooves]
04. Martin Accorsi - Immersed (Deep Mix) [Yoshitoshi]
05. Lypid - The Signs Alive (Montage Man Remix) [White Label]
06. Bullit - Cried To Dream (Ashtrax Mix) [VC Recordings]
07. Jimmy Van M - Sanctuary (Original Mix) [Bedrock]
08. Tijuana - Groove Is In The Air (FC Kahuna Mix) [Bedrock]

John Digweed cuesheet

TITLE "John Digweed - Kiss 100 - 2000-10-13"
FILE "John Digweed - Kiss 100 - 2000-10-13.mp3" MP3

TRACK 01 AUDIO
TITLE "Amalgamation Of Sounds - Latmo [Airtight]"
INDEX 01 00:00:00

TRACK 02 AUDIO
TITLE "Soul Dharma - Flower (Scuba Mix)"
INDEX 01 05:57:53

TRACK 03 AUDIO
TITLE "Ananda Project - Glory Glory (Karma Dublick Mix) [Nite Grooves]"
INDEX 01 17:00:40

TRACK 04 AUDIO
TITLE "Martin Accorsi - Immersed (Deep Mix) [Yoshitoshi]"
INDEX 01 22:16:55

TRACK 05 AUDIO
TITLE "Lypid - The Signs Alive (Montage Man Remix) [White Label]"
INDEX 01 28:50:55

TRACK 06 AUDIO
TITLE "Bullit - Cried To Dream (Ashtrax Mix) [VC Recordings]"
INDEX 01 36:33:41

TRACK 07 AUDIO
TITLE "Jimmy Van M - Sanctuary (Original Mix) [Bedrock]"
INDEX 01 44:30:05

TRACK 08 AUDIO
TITLE "Tijuana - Groove Is In The Air (FC Kahuna Mix) [Bedrock]"
INDEX 01 56:29:47

Saeed & Palash tracklist

01. Steve Lawler - Rise In (Saeed & Palash Mix) [Nervous]
02. Fabrice & Gemo vs. Street Vibes - Walking [Test Pressing]
03. Bedrock - Voices (Saeed & Palash Mix) [Bedrock]
04. PQM feat. Circa - The Flying Song (Marcus Shultz Mix) [Yoshitoshi]
05. Mad Powda - Drumz [Direct Styles]
06. Moonface - Overactive [Bedrock]
07. ID - ID
08. Base Twelve - Deep (Saeed & Palash Mix) [Nervous]

Saeed & Palash cuesheet

TITLE "John Digweed - Kiss 100 - 2000-10-13 - Saeed And Palash"
FILE "John Digweed - Kiss 100 - 2000-10-13 - Saeed And Palash.mp3" MP3

TRACK 01 AUDIO
TITLE "Steve Lawler - Rise In (Saeed & Palash Mix) [Nervous]"
INDEX 01 00:00:00

TRACK 02 AUDIO
TITLE "Fabrice & Gemo vs. Street Vibes - Walking [Test Pressing]"
INDEX 01 08:53:06

TRACK 03 AUDIO
TITLE "Bedrock - Voices (Saeed & Palash Mix) [Bedrock]"
INDEX 01 12:52:33

TRACK 04 AUDIO
TITLE "PQM feat. Circa - The Flying Song (Marcus Shultz Mix) [Yoshitoshi]"
INDEX 01 21:48:34

TRACK 05 AUDIO
TITLE "Mad Powda - Drumz [Direct Styles]"
INDEX 01 26:49:52

TRACK 06 AUDIO
TITLE "Moonface - Overactive [Bedrock]"
INDEX 01 30:57:37

TRACK 07 AUDIO
TITLE "ID - ID"
INDEX 01 38:22:18

TRACK 08 AUDIO
TITLE "Base Twelve - Deep (Saeed & Palash Mix) [Nervous]"
INDEX 01 42:38:40

TRACK 09 AUDIO
TITLE "ID - ID"
INDEX 01 47:15:07

TRACK 10 AUDIO
TITLE "Oliver Lieb - Subraumstimulation (John Johnston Mix) [Data Recordings]"
INDEX 01 50:47:56

thanks the sun and the sea for tracklists and cuesheets