Part 1 tracklist

01. Atropin Project - Plusier (Fade Mix) [2001 Germany]
02. Seed Sound - Fade Record [Fade Records]
03. Steve Porter - Innerpulse (Fade Mix) [Fade Recordings]
04. Aria - One (Voyager Mix) [Fire]
05. ID - ID
06. ID - ID
07. Alpha Omega - Omega EP
08. ID - ID
09. ID - ID

Part 1 cuesheet

TITLE "John Digweed - Kiss 100 - 2000-11-18 - Live At 514 Productions Party, Montreal, Canada"
FILE "John Digweed - Kiss 100 - 2000-11-18 - Live At 514 Productions Party, Montreal, Canada - Part 01.mp3" MP3

TRACK 01 AUDIO
TITLE "Atropin Project - Plusier (Fade Mix) [2001 Germany]"
INDEX 01 00:00:00

TRACK 02 AUDIO
TITLE "Seed Sound - Fade Record [Fade Records]"
INDEX 01 04:17:54

TRACK 03 AUDIO
TITLE "Steve Porter - Innerpulse (Fade Mix) [Fade Recordings]"
INDEX 01 12:58:18

TRACK 04 AUDIO
TITLE "Aria - One (Voyager Mix) [Fire]"
INDEX 01 20:49:57

TRACK 05 AUDIO
TITLE "ID - ID"
INDEX 01 29:13:44

TRACK 06 AUDIO
TITLE "ID - ID"
INDEX 01 41:21:49

TRACK 07 AUDIO
TITLE "Alpha Omega - Omega EP"
INDEX 01 46:01:07

TRACK 08 AUDIO
TITLE "ID - ID"
INDEX 01 53:07:32

TRACK 09 AUDIO
TITLE "ID - ID"
INDEX 01 58:40:90

Part 2 tracklist

01. ID - ID
02. Cass - Genesis
03. ID - ID
04. ID - ID
05. ID - ID
06. Dylan - Society [Blue Black]
07. Si - Delta
08. Cass - Genesis
09. Cass - Genesis (Perfectium Mix)
10. Jamez pres. Tatoine - Music (Evolution Mix) [Fluid]

Part 2 cuesheet

TITLE "John Digweed - Kiss 100 - 2000-11-18 - Live at 514 Productions Party, Montreal, Canada - Part 02"
FILE "John Digweed - Kiss 100 - 2000-11-18 - Live at 514 Productions Party, Montreal, Canada - Part 02.mp3" MP3

TRACK 01 AUDIO
TITLE "ID - ID"
INDEX 01 00:00:00

TRACK 02 AUDIO
TITLE "Cass - Genesis"
INDEX 01 05:49:20

TRACK 03 AUDIO
TITLE "ID - ID"
INDEX 01 09:07:58

TRACK 04 AUDIO
TITLE "ID - ID"
INDEX 01 13:46:23

TRACK 05 AUDIO
TITLE "ID - ID"
INDEX 01 20:09:41

TRACK 06 AUDIO
TITLE "Dylan - Society [Blue Black]"
INDEX 01 27:32:56

TRACK 07 AUDIO
TITLE "Si - Delta"
INDEX 01 30:33:05

TRACK 08 AUDIO
TITLE "Cass - Genesis"
INDEX 01 36:03:11

TRACK 09 AUDIO
TITLE "Cass - Genesis (Perfectium Mix)"
INDEX 01 42:25:59

TRACK 10 AUDIO
TITLE "Jamez pres. Tatoine - Music (Evolution Mix) [Fluid]"
INDEX 01 49:55:37

thanks the sun and the sea for tracklists and cuesheets