John Digweed tracklist

01. Alto Camet - Passion Descatca (Swayzak Vocal Mix) [Shinichi Records]
02. Kraftwerk - Expo 2000 (Francois K & Rob Rivas Mix) [EMI]
03. Universal Agents - East of Washington [Ovum Records]
04. Lypid - The Signs Alive (DJ Three & Q-Burns Mix) [Strate]
05. Martin Accorsi - Immersed (Deep Mix) [Yoshitoshi]
06. Martin Accorsi - Immersed (Hard Mix) [Yoshitoshi]
07. Martin Accorsi - Feedback Inhibition [Yoshitoshi]
08. The Path feat. Marcel - Prayin' (Children of House) [Junior]

John Digweed cuesheet

TITLE "John Digweed - Kiss 100 - 2000-12-22 - Live at Fabric, London - Part 01"
FILE "John Digweed - Kiss 100 - 2000-12-22 - Live at Fabric, London - Part 01.mp3" MP3

TRACK 01 AUDIO
TITLE "Alto Camet - Passion Descatca (Swayzak Vocal Mix) [Shinichi Records]"
INDEX 01 00:00:00

TRACK 02 AUDIO
TITLE "Kraftwerk - Expo 2000 (Francois K & Rob Rivas Mix) [EMI]"
INDEX 01 07:51:51

TRACK 03 AUDIO
TITLE "Universal Agents - East of Washington [Ovum Records]"
INDEX 01 13:51:45

TRACK 04 AUDIO
TITLE "Lypid - The Signs Alive (DJ Three & Q-Burns Mix) [Strate]"
INDEX 01 20:58:57

TRACK 05 AUDIO
TITLE "Martin Accorsi - Immersed (Deep Mix) [Yoshitoshi]"
INDEX 01 28:22:32

TRACK 06 AUDIO
TITLE "Martin Accorsi - Immersed (Hard Mix) [Yoshitoshi]"
INDEX 01 35:43:46

TRACK 07 AUDIO
TITLE "Martin Accorsi - Feedback Inhibition [Yoshitoshi]"
INDEX 01 41:48:54

TRACK 08 AUDIO
TITLE "The Path feat. Marcel - Prayin' (Children of House) [Junior]"
INDEX 01 53:20:08

Guest tracklist

01. ID - ID
02. Liquid Language - Blu Savannah (Memnon Remix) [Stimuli]
03. Third Rail - The Tempest [Sunkissed]
04. ASAP - Save The Trees [Zero Tolerance]
05. Infusion - ISBN [Thunk]
06. Innate - Changes (Killahurtz Mix) [Platipus]
07. Quivver - One Last Time (Lee Coombs Mix) [VC]
08. Louise - Beautiful Inside (Tilt's 11pm Dub) [First Avenue]
09. Alchemy - Bruiser (Evolution Mix) [Bedrock]
10. Chakra - I Am (Bedrock Mix) [Earth Music]

Guest cuesheet

TITLE "John Digweed - Kiss 100 - 2000-12-22 - Steve Gerrardr"
FILE "John Digweed - Kiss 100 - 2000-12-22 - Steve Gerrard.mp3" MP3

TRACK 01 AUDIO
TITLE "ID - ID"
INDEX 01 00:00:00

TRACK 02 AUDIO
TITLE "Liquid Language - Blu Savannah (Memnon Remix) [Stimuli]"
INDEX 01 08:05:00

TRACK 03 AUDIO
TITLE "Third Rail - The Tempest [Sunkissed]"
INDEX 01 11:39:08

TRACK 04 AUDIO
TITLE "ASAP - Save The Trees [Zero Tolerance]"
INDEX 01 15:56:24

TRACK 05 AUDIO
TITLE "Infusion - ISBN [Thunk]"
INDEX 01 19:11:47

TRACK 06 AUDIO
TITLE "Innate - Changes (Killahurtz Mix) [Platipus]"
INDEX 01 24:24:46

TRACK 07 AUDIO
TITLE "Quivver - One Last Time (Lee Coombs Mix) [VC]"
INDEX 01 31:31:33

TRACK 08 AUDIO
TITLE "Louise - Beautiful Inside (Tilt's 11pm Dub) [First Avenue]"
INDEX 01 38:04:44

TRACK 09 AUDIO
TITLE "Alchemy - Bruiser (Evolution Mix) [Bedrock]"
INDEX 01 42:43:14

TRACK 10 AUDIO
TITLE "Chakra - I Am (Bedrock Mix) [Earth Music]"
INDEX 01 50:14:14

thanks the sun and the sea for tracklists and cuesheets