PERFORMER "Omid 16B"
TITLE "Jet Set Beach 2005 (D.R.P.D.A.)"
FILE "Omid16B-JetSetBeach2005_sobakaRu.mp3" MP3
TRACK 01 AUDIO
TITLE "Track01"
PERFORMER "Omni16B"
INDEX 01 00:00:00
TRACK 02 AUDIO
TITLE "Track02"
PERFORMER "Omni16B"
INDEX 01 01:55:50
TRACK 03 AUDIO
TITLE "Track03"
PERFORMER "Omni16B"
INDEX 01 08:56:40
TRACK 04 AUDIO
TITLE "Track04"
PERFORMER "Omni16B"
INDEX 01 14:48:10
TRACK 05 AUDIO
TITLE "Track05"
PERFORMER "Omni16B"
INDEX 01 21:02:62
TRACK 06 AUDIO
TITLE "Track06"
PERFORMER "Omni16B"
INDEX 01 27:17:37
TRACK 07 AUDIO
TITLE "Track07"
PERFORMER "Omni16B"
INDEX 01 35:02:12
TRACK 08 AUDIO
TITLE "Track08"
PERFORMER "Omni16B"
INDEX 01 42:09:45
TRACK 09 AUDIO
TITLE "Track09"
PERFORMER "Omni16B"
INDEX 01 48:16:69
TRACK 10 AUDIO
TITLE "Track10"
PERFORMER "Omni16B"
INDEX 01 52:09:30
TRACK 11 AUDIO
TITLE "Track11"
PERFORMER "Omni16B"
INDEX 01 57:24:19
TRACK 12 AUDIO
TITLE "Track12"
PERFORMER "Omni16B"
INDEX 01 62:45:55
TRACK 13 AUDIO
TITLE "Track13"
PERFORMER "Omni16B"
INDEX 01 68:48:32
TRACK 14 AUDIO
TITLE "Track14"
PERFORMER "Omni16B"
INDEX 01 73:54:07
TRACK 15 AUDIO
TITLE "Track15"
PERFORMER "Omni16B"
INDEX 01 76:45:47


Help with tracks name!