John Digweed Tracklist:
Peace Division - Blacklight Sleaze [NRK Sound Division]
Astro & Glyde - I Know What You Like
Dirt Crew - Domino [Moodmusic]
Taz - Bad Bass [Bustin' Loose Recordings]
Spirit Catcher - Polysquasher [Silver Network]
DJ T. - Stalker [Get Physical Music]
Maniac Mind - Mentally Sick [Notorious]
Pascal FEOS & Heiko MSO - Further & Further [Level Non Zero]

John Digweed Cuesheet:
PERFORMER "John Digweed"
TITLE "Kiss 100 Mix (12.03.2006)"
FILE "Kiss 100 Mix - 2006-03-12 - John Digweed.mp3" MP3
TRACK 01 AUDIO
INDEX 01 00:00:00
TRACK 02 AUDIO
INDEX 01 06:41:00
TRACK 03 AUDIO
INDEX 01 14:20:00
TRACK 04 AUDIO
INDEX 01 22:28:00
TRACK 05 AUDIO
INDEX 01 25:33:00
TRACK 06 AUDIO
INDEX 01 32:04:00
TRACK 07 AUDIO
INDEX 01 39:05:00
TRACK 08 AUDIO
INDEX 01 46:05:00

Bushwacka! Tracklist:

Bushwacka! Cuesheet:

Thanks to herre for JD tracklist and cuesheet

PM skahound with tracklists and cuesheets