Payment options
Results 1 to 1 of 1

Thread: 2006-03-11 Hernan Cattaneo Metrodance 95.1 FM (TL+Cue)

  1. #1
    Paging Doctor Weeds...we have a shortage on 1st St. TomTom's Avatar
    Join Date
    May 2002
    Location
    Frankfurt/Germany
    Age
    51
    Posts
    16,206
    Blog Entries
    1

    2006-03-11 Hernan Cattaneo Metrodance 95.1 FM (TL+Cue)

    Tracklist

    Pt1:

    01 - Drew Nichols - Mare di voci (original mix)
    02 - Howells - Breath edit
    03 . Matt Rowan & Jayytech - Tomorrow
    04 - Sultan & Tone Depth featuring Stephanie Vezina - Sagres (DJ Tarkan remix)
    05 - Fantastic 2 - Other people (DJ Tarkan remix)
    06 - Facundo Mohrr - To catch me2

    Pt2:

    01 - Pako & Frederik - It's like butter
    02 - Accoutume - Deep mix M
    03 - Shiloh - Café del Mariachi
    04 - Mikael Delta - Dazed
    05 - Inkfish & Heller - Chris Cargo
    06 - Brusca & Angelmoon - Unknown
    07 - Dousk - Chrysallis
    08 - D-Nox & Beckers - One shout (Nop remix)

    Cuesheet

    FILE "2006-03-11 Hernan Cattaneo - Metro 95.1 [www.mercuryserver.com] part1 (81MB).mp3" MP3
    TRACK 01 AUDIO
    INDEX 01 00:00:00
    TRACK 02 AUDIO
    INDEX 01 11:07:00
    TRACK 03 AUDIO
    INDEX 01 17:12:00
    TRACK 04 AUDIO
    INDEX 01 26:10:00
    TRACK 05 AUDIO
    INDEX 01 38:37:00
    TRACK 06 AUDIO
    INDEX 01 46:45:00


    FILE "2006-03-11 Hernan Cattaneo - Metro 95.1 [www.mercuryserver.com] part2 (82MB).mp3" MP3
    TRACK 01 AUDIO
    INDEX 01 00:00:00
    TRACK 02 AUDIO
    INDEX 01 07:25:00
    TRACK 03 AUDIO
    INDEX 01 15:25:00
    TRACK 04 AUDIO
    INDEX 01 21:10:00
    TRACK 05 AUDIO
    INDEX 01 29:36:00
    TRACK 06 AUDIO
    INDEX 01 37:09:00
    TRACK 07 AUDIO
    INDEX 01 43:39:00
    TRACK 08 AUDIO
    INDEX 01 50:08:00

    Thanks to chiguy2891 for Hernan's cuesheet
    Last edited by TomTom; April 4, 2006 at 02:25:37 AM.

Thread Information

Users Browsing this Thread

There are currently 1 users browsing this thread. (0 members and 1 guests)

Similar Threads

  1. How much music do you have?
    By clintlove in forum General Yakkity Yak
    Replies: 323
    Last Post: January 22, 2011, 03:04:36 AM
  2. Replies: 0
    Last Post: May 17, 2005, 03:58:16 PM
  3. Replies: 0
    Last Post: May 17, 2005, 03:44:15 PM
  4. Replies: 0
    Last Post: May 17, 2005, 01:08:47 PM
  5. Hernan Cattaneo - Resident live from London Jan - May 2004
    By TomTom in forum General Yakkity Yak
    Replies: 4
    Last Post: November 9, 2004, 03:45:27 AM

Posting Permissions

  • You may not post new threads
  • You may not post replies
  • You may not post attachments
  • You may not edit your posts
  •