Payment options
Results 1 to 1 of 1

Thread: 2006-04-15 Hernan Cattaneo Metrodance 95.1 FM (TL+Cue)

  1. #1
    Paging Doctor Weeds...we have a shortage on 1st St. TomTom's Avatar
    Join Date
    May 2002
    Location
    Frankfurt/Germany
    Age
    51
    Posts
    16,206
    Blog Entries
    1

    2006-04-15 Hernan Cattaneo Metrodance 95.1 FM (TL+Cue)

    Tracklist

    Pt1:

    01 - Bia & DJ Paul - Big monkey
    02 - Nick K - Who needs Vocals anyway
    03 - Francis Blaid - If I want you
    04 - Perry O'Neil - Get out of my sofa
    05 - dPen - Closer
    06 - Audacity - My brand new desire (Beckers remix)
    07 - Dave Lambert - House in play (extended original version)

    Pt2:

    01 - Noidea
    02 - Zombie (Aquachop dub)
    03 - Janicki - Polish Vodka (original mix)
    04 - Will Saul vs. Gorillaz
    05 - Andrew K vs. Simuck - Clouds go by (Work warning mix)
    06 - Björk - Aurora (Facundo Mohrr remix)
    07 - Adore You - Micah
    08 - Portished - Roads (David Kassi remix)

    Cuesheet

    FILE "2006-04-15 Hernan Cattaneo - Metro 95.1 [www.mercuryserver.com] Part 1 [74MB].mp3" MP3

    TRACK 01 AUDIO
    INDEX 01 00:00:00
    TRACK 02 AUDIO
    INDEX 01 07:56:00
    TRACK 03 AUDIO
    INDEX 01 13:46:00
    TRACK 04 AUDIO
    INDEX 01 20:38:00
    TRACK 05 AUDIO
    INDEX 01 28:38:00
    TRACK 06 AUDIO
    INDEX 01 39:27:00
    TRACK 07 AUDIO
    INDEX 01 46:14:00

    FILE "2006-04-15 Hernan Cattaneo - Metro 95.1 [www.mercuryserver.com] Part 2 [77MB].mp3" MP3

    TRACK 01 AUDIO
    INDEX 01 00:00:00
    TRACK 02 AUDIO
    INDEX 01 09:30:00
    TRACK 03 AUDIO
    INDEX 01 14:44:00
    TRACK 04 AUDIO
    INDEX 01 22:14:00
    TRACK 05 AUDIO
    INDEX 01 27:02:00
    TRACK 06 AUDIO
    INDEX 01 35:02:00
    TRACK 07 AUDIO
    INDEX 01 43:33:00
    TRACK 08 AUDIO
    INDEX 01 50:03:00

    Thanks to chiguy2891 for Hernan's cuesheet
    Last edited by TomTom; May 23, 2006 at 01:39:05 AM.

Thread Information

Users Browsing this Thread

There are currently 1 users browsing this thread. (0 members and 1 guests)

Similar Threads

  1. How much music do you have?
    By clintlove in forum General Yakkity Yak
    Replies: 323
    Last Post: January 22, 2011, 03:04:36 AM
  2. Replies: 0
    Last Post: May 17, 2005, 03:58:16 PM
  3. Replies: 0
    Last Post: May 17, 2005, 03:44:15 PM
  4. Replies: 0
    Last Post: May 17, 2005, 03:19:37 PM
  5. Hernan Cattaneo - Resident live from London Jan - May 2004
    By TomTom in forum General Yakkity Yak
    Replies: 4
    Last Post: November 9, 2004, 03:45:27 AM

Posting Permissions

  • You may not post new threads
  • You may not post replies
  • You may not post attachments
  • You may not edit your posts
  •