Payment options
Results 1 to 1 of 1

Thread: 2006-05-13 Hernan Cattaneo Metrodance 95.1 FM (TL+Cue)

  1. #1
    Paging Doctor Weeds...we have a shortage on 1st St. TomTom's Avatar
    Join Date
    May 2002
    Location
    Frankfurt/Germany
    Age
    51
    Posts
    16,206
    Blog Entries
    1

    2006-05-13 Hernan Cattaneo Metrodance 95.1 FM (TL+Cue)

    Tracklist

    Pt1:

    01 - Quicksound - Part of you (dub)
    02 - DJ Tim David Kassi - Deep Ocean
    03 - Roman - Unknown
    04 - Gustavo Godoy -I need something that moves
    05 - Denver & Mints presents - Purified
    06 - Pablorama - Broken cells
    07 - Andrew K vs. Simuck - Clouds go by (Work warning mix)

    Pt2.

    01 - Dirtyhertz & Mark Musselman - Revival
    02 - The Last Atlant - Oneric world
    03 - V-Sag & Andrew K - Fossil (original mix)
    04 - Dean Coleman - Bak2deep (Samio remix )
    05 - Alex Kenji - Low frequency
    06 - Mashtronic - Supernova
    07 Josh - Mtsr

    Cuesheet

    FILE "2006-05-13 Hernan Cattaneo - Metro 95.1 [www.mercuryserver.com] Part 1 [79MB].mp3" MP3
    TRACK 01 AUDIO
    INDEX 01 00:00:00
    TRACK 02 AUDIO
    INDEX 01 08:19:00
    TRACK 03 AUDIO
    INDEX 01 13:24:00
    TRACK 04 AUDIO
    INDEX 01 21:45:00
    TRACK 05 AUDIO
    INDEX 01 29:25:00
    TRACK 06 AUDIO
    INDEX 01 41:39:00
    TRACK 07 AUDIO
    INDEX 01 49:01:00

    FILE "2006-05-13 Hernan Cattaneo - Metro 95.1 [www.mercuryserver.com] Part 2 [80MB].mp3" MP3

    TRACK 01 AUDIO
    INDEX 01 00:00:00
    TRACK 02 AUDIO
    INDEX 01 09:55:00
    TRACK 03 AUDIO
    INDEX 01 17:39:00
    TRACK 04 AUDIO
    INDEX 01 26:12:00
    TRACK 05 AUDIO
    INDEX 01 37:43:00
    TRACK 06 AUDIO
    INDEX 01 43:22:00
    TRACK 07 AUDIO
    INDEX 01 50:52:00

    Thanks to chiguy2891 for Hernan's cuesheet
    Last edited by TomTom; June 23, 2006 at 02:01:59 AM.

Thread Information

Users Browsing this Thread

There are currently 1 users browsing this thread. (0 members and 1 guests)

Similar Threads

  1. How much music do you have?
    By clintlove in forum General Yakkity Yak
    Replies: 323
    Last Post: January 22, 2011, 03:04:36 AM
  2. Replies: 0
    Last Post: May 17, 2005, 03:58:16 PM
  3. Replies: 0
    Last Post: May 17, 2005, 01:08:47 PM
  4. Replies: 0
    Last Post: May 17, 2005, 01:01:46 PM
  5. Hernan Cattaneo - Resident live from London Jan - May 2004
    By TomTom in forum General Yakkity Yak
    Replies: 4
    Last Post: November 9, 2004, 03:45:27 AM

Posting Permissions

  • You may not post new threads
  • You may not post replies
  • You may not post attachments
  • You may not edit your posts
  •