Payment options
Results 1 to 1 of 1

Thread: 2006-06-03 Hernan Cattaneo Metrodance 95.1 FM (TL+Cue)

  1. #1
    Paging Doctor Weeds...we have a shortage on 1st St. TomTom's Avatar
    Join Date
    May 2002
    Location
    Frankfurt/Germany
    Age
    51
    Posts
    16,206
    Blog Entries
    1

    2006-06-03 Hernan Cattaneo Metrodance 95.1 FM (TL+Cue)

    Tracklist:

    Pt1:

    01 - Peace Division - Blacklight sleaze
    02 - Elias Tzikas - She is sacred
    03 - Elias Tzikas - Early grave
    04 - Rhythm Code - New Jack
    05 - Julio Torres - One god
    06 - James Benitez - Miss thing
    07 - Unknown - Guantas
    08 - Rhythm Code - Flash
    09 - B-boy

    Pt2:

    01 - Miss - Rhinoplasty
    02 - Yana Heinstein - Buffer override
    03 - Sven Dohse- Rumble
    04 - Roger Martinez - The house
    05 - Radiohead - Everything in its right place (Mike Foyle)
    06 - Unknown
    07 - C-Jay& Mick Wilson - Torba (Josel's hold your breath remix)
    08 - DJ DLG - CNC

    Cuesheet:

    FILE "2006-06-03 Hernan Cattaneo - Metro 95.1 [www.mercuryserver.com] Part 1 [79mb].mp3" MP3
    TRACK 01 AUDIO
    INDEX 01 00:00:00
    TRACK 02 AUDIO
    INDEX 01 06:33:00
    TRACK 03 AUDIO
    INDEX 01 11:21:00
    TRACK 04 AUDIO
    INDEX 01 17:42:00
    TRACK 05 AUDIO
    INDEX 01 23:25:00
    TRACK 06 AUDIO
    INDEX 01 31:05:00
    TRACK 07 AUDIO
    INDEX 01 38:57:00
    TRACK 08 AUDIO
    INDEX 01 45:05:00
    TRACK 09 AUDIO
    INDEX 01 50:10:00

    FILE "2006-06-03 Hernan Cattaneo - Metro 95.1 [www.mercuryserver.com] Part 2 [82mb].mp3" MP3
    TRACK 01 AUDIO
    INDEX 01 00:00:00
    TRACK 02 AUDIO
    INDEX 01 08:33:00
    TRACK 03 AUDIO
    INDEX 01 16:35:00
    TRACK 04 AUDIO
    INDEX 01 23:20:00
    TRACK 05 AUDIO
    INDEX 01 31:28:00
    TRACK 06 AUDIO
    INDEX 01 40:10:00
    TRACK 07 AUDIO
    INDEX 01 47:25:00
    TRACK 08 AUDIO
    INDEX 01 52:56:00


    Thanks to chiguy2891 for Hernan's cuesheet
    Last edited by TomTom; July 21, 2006 at 02:57:17 AM.

Thread Information

Users Browsing this Thread

There are currently 1 users browsing this thread. (0 members and 1 guests)

Similar Threads

  1. How much music do you have?
    By clintlove in forum General Yakkity Yak
    Replies: 323
    Last Post: January 22, 2011, 03:04:36 AM
  2. Replies: 70
    Last Post: June 2, 2006, 08:44:44 AM
  3. Replies: 0
    Last Post: May 17, 2005, 03:58:16 PM
  4. Replies: 0
    Last Post: May 17, 2005, 12:56:16 PM
  5. Hernan Cattaneo - Resident live from London Jan - May 2004
    By TomTom in forum General Yakkity Yak
    Replies: 4
    Last Post: November 9, 2004, 03:45:27 AM

Posting Permissions

  • You may not post new threads
  • You may not post replies
  • You may not post attachments
  • You may not edit your posts
  •