John Digweed- Tracklisting

01. Pressure Drop - Your Mine (Adam Freeland Mix) [One Eye]
02. DJ Shadow feat Root Manuva - GDMFSOB (UNKLE Uncensored Mix)
03. Sons of Slough - Check Out UPA [Whole Nine Yards]
04. Ils - No Soul (PMT Mix) [Marine Parade]
05. Dave Gahan - Dirty Sticky Floor (Silencer Mix) [Mute]
06. Zoop Woman - Its Automatic (Cosmos Dub)
07. Dylan Rhymes - Eyecatcher [Blue Black Records]
08. Nick K - Coming Home [Camouflage]

John Digweed- Cue Sheet

FILE "Kiss100- (May 02 2003)- Part 1- John Digweed.mp3" MP3
TRACK 01 AUDIO
TITLE "Pressure Drop - Your Mine (Adam Freeland Mix) [One Eye]"
INDEX 01 00:00:00
TRACK 02 AUDIO
TITLE "DJ Shadow feat Root Manuva - GDMFSOB (UNKLE Uncensored Mix)"
INDEX 01 08:31:15
TRACK 03 AUDIO
TITLE "Sons of Slough - Check Out UPA [Whole Nine Yards]"
INDEX 01 13:21:02
TRACK 04 AUDIO
TITLE "Ils - No Soul (PMT Mix) [Marine Parade]"
INDEX 01 19:54:30
TRACK 05 AUDIO
TITLE "Dave Gahan - Dirty Sticky Floor (Silencer Mix) [Mute]"
INDEX 01 27:18:35
TRACK 06 AUDIO
TITLE "Zoop Woman - Its Automatic (Cosmos Dub)"
INDEX 01 33:43:00
TRACK 07 AUDIO
TITLE "Dylan Rhymes - Eyecatcher [Blue Black Records]"
INDEX 01 40:41:20
TRACK 08 AUDIO
TITLE "Nick K - Coming Home [Camouflage]"
INDEX 01 46:22:05

Oscar Egoista- Tracklisting

01. Pole Folder - Waxxx (Pole Folder & CP Mix) [Bedrock]
02. ODD - Don't Look At Me (Paul Roger's Late Night Dub Remix) [Sumsonic]
03. Holmes Ives - Eros (Divine Creation Mix) [Shinichi]
04. Madoka - Broadband (Original Mix) [Private Reality]
05. John Debo & Steve Porter - Deported (Original Mix) [Bedrock]
06. Symantek - Relations (Symantek Dub) [Red n Raw]
07. Yunus - Red Pilot [Silver Planet]
08. Revolt - Relax (Original Mix) [Bliss]
09. Paul Rogers - Krafty (Original Mix) [Sumsonic]
10. Kao - Stonegroove [Eastern Bloc Underground]
11. Sphere - I Love Sound [Progess Inn]

Oscar Egoista- Cue Sheet

PERFORMER "Oscar Egoista"
TITLE "Kiss 100 - (May 2 2003) - Oscar Egoista"
FILE "Part 2.mp3" MP3
TRACK 01 AUDIO
TITLE "Pole Folder - Waxxx (Pole Folder & CP Mix) [Bedrock]"
INDEX 01 00:00:00
TRACK 02 AUDIO
TITLE "ODD - Don't Look At Me (Paul Roger's Late Night Dub Remix) [Sumsonic]"
INDEX 01 10:12:44
TRACK 03 AUDIO
TITLE "Holmes Ives - Eros (Divine Creation Mix) [Shinichi]"
INDEX 01 16:48:66
TRACK 04 AUDIO
TITLE "Madoka - Broadband (Original Mix) [Private Reality]"
INDEX 01 23:36:60
TRACK 05 AUDIO
TITLE John Debo & Steve Porter - Deported (Original Mix) [Bedrock]"
INDEX 01 28:12:35
TRACK 06 AUDIO
TITLE "Symantek - Relations (Symantek Dub) [Red n Raw]"
INDEX 01 34:32:00
TRACK 07 AUDIO
TITLE "Yunus - Red Pilot [Silver Planet]"
INDEX 01 40:20:20
TRACK 08 AUDIO
TITLE "Revolt - Relax (Original Mix) [Bliss]"
INDEX 01 47:49:66
TRACK 09 AUDIO
TITLE "Paul Rogers - Krafty (Original Mix) [Sumsonic]"
INDEX 01 53:14:00
TRACK 10 AUDIO
TITLE "Kao - Stonegroove [Eastern Bloc Underground]"
INDEX 01 59:24:00

Thanks for the JD cue sheet Ariel!
Thanks to Civic_Zen for the Oscar TL update!


-TC- & -JC-
_________________
"People misunderstand dance music. They think it's something with a drum machine. But what about tango? Or salsa?" Bj?rk (Elle USA, december 1997)