John Digweed- Tracklisting

01. Echomen - Thru 2 You (Original Vocal Mix) [Airtight]
02. Pasca - Life is Hard
03. Jay Tripwire - Deep Rumbler [Northern Lights]
04. Ladytron - Evil (Ewan Pearson mix) [Telstar]
05. Flash Brothers - Restless [Distract]
06. Chemical Soldiers - Beautiful People [Abyss]
07. Air Bureau - Dont Expect Me [Loaded]
08. Funktion - Need To Know [Shine]

John Digweed- Cue Sheet

FILE "C:\John Digweed - Digweed Kiss100 (09-05-03).mp3" MP3
TRACK 01 AUDIO
TITLE "Echomen - Thru 2 You (Original Vocal Mix) [Airtight]"
INDEX 01 00:00:00
TRACK 02 AUDIO
TITLE "Pasca - Life is Hard"
INDEX 01 07:08:15
TRACK 03 AUDIO
TITLE "Jay Tripwire - Deep Rumbler [Northern Lights]"
INDEX 01 17:37:26
TRACK 04 AUDIO
TITLE "Ladytron - Evil (Ewan Pearson mix) [Telstar]"
INDEX 01 23:47:64
TRACK 05 AUDIO
TITLE "Flash Brothers - Restless [Distract]"
INDEX 01 29:47:33
TRACK 06 AUDIO
TITLE "Chemical Soldiers - Beautiful People [Abyss]"
INDEX 01 36:59:37
TRACK 07 AUDIO
TITLE "Air Bureau - Dont Expect Me [Loaded]"
INDEX 01 45:11:53
TRACK 08 AUDIO
TITLE "Funktion - Need To Know [Shine]"
INDEX 01 51:54:51


Osamu M Live @ Club Yellow- Tracklisting

01. Layo & Bushwacka - Deep South (Mr C Remix) [End recordings]
02. Timo Maas feat Kelis - Help Me (Deep Dish Mix) [Superstar Records]
03. Subway Baby - Tribes Of Khan Gala (DJ Gogo Remix) [Saw]
04. Cass - Mind Rewind [Sabotage]
05. Rui Da Silva - 5th Element [Kismet]
06. Chris Fortier - Whateveritis [Fade Records]
07. Sasha - Cloud Cuckoo (Luke Chable Remix) [White]
08. Steiger - Postcard From The Edge [Bedrock]
09. Cirque - Cirque Music Volume 3 (You & Me Dub) [Cirque Recordings]

Osamu M Live @ Club Yellow- Cue Sheet

FILE "Kiss100(May_09_2003)Osamu_M[ms].mp3" MP3
TRACK 01 AUDIO
TITLE "Layo & Bushwacka - Deep South (Mr C Remix) [End recordings]"
INDEX 01 00:00:00
TRACK 02 AUDIO
TITLE "Timo Maas feat Kelis - Help Me (Deep Dish Mix) [Superstar Records]"
INDEX 01 00:59:00
TRACK 03 AUDIO
TITLE "Subway Baby - Tribes Of Khan Gala (DJ Gogo Remix) [Saw]"
INDEX 01 11:19:00
TRACK 04 AUDIO
TITLE "Cass - Mind Rewind [Sabotage]"
INDEX 01 18:33:00
TRACK 05 AUDIO
TITLE "Rui Da Silva - 5th Element [Kismet]"
INDEX 01 26:30:00
TRACK 06 AUDIO
TITLE "Chris Fortier - Whateveritis [Fade Records]"
INDEX 01 34:46:00
TRACK 07 AUDIO
TITLE "Sasha - Cloud Cuckoo (Luke Chable Remix) [White]"
INDEX 01 40:06:00
TRACK 08 AUDIO
TITLE "Steiger - Postcard From The Edge [Bedrock]"
INDEX 01 49:37:00
TRACK 09 AUDIO
TITLE "Cirque - Cirque Music Volume 3 (You & Me Dub) [Cirque Recordings]"
INDEX 01 58:22:00

Thanks to romanek for the Osamu cue sheet.
Thanks to Civic_Zen for the Osamu TL update!

-TC- & -JC-
_________________
"People misunderstand dance music. They think it's something with a drum machine. But what about tango? Or salsa?" Bj?rk (Elle USA, december 1997)