John Digweed- Tracklisting

01. Panic - Dublin Huffers [Warbled]
02. Duncan Gray - Three Pints Of Gas [Mighty Atom]
03. Claire Quilty - Unknown [Decide]
04. Brancaccio & Aisher - Everybody (Tom Mangan Mix) [Bedrock]
05. Arcane Rhythm - Shadows [Vapour]
06. Freeland - We Want Your Soul (Infusion Mix) [Marine Parade]
07. Funk Device - Similarity [1969]
08. Patrick Zygon - Wildlife [Save The Disc]
09. Undo Redo - Pink Driver

John Digweed- Cue Sheet

FILE "C:\Kiss100- (Jul 25 2003)- Part 1- John Digweed.mp3" MP3
TRACK 01 AUDIO
TITLE "Panic - Dublin Huffers [Warbled]"
INDEX 01 00:00:00
TRACK 02 AUDIO
TITLE "Duncan Gray - Three Pints Of Gas [Mighty Atom]"
INDEX 01 07:37:52
TRACK 03 AUDIO
TITLE "Claire Quilty - Unknown [Decide]"
INDEX 01 13:52:04
TRACK 04 AUDIO
TITLE "Brancaccio & Aisher - Everybody (Tom Mangan Mix) [Bedrock]"
INDEX 01 21:16:22
TRACK 05 AUDIO
TITLE "Arcane Rhythm - Shadows [Vapour]"
INDEX 01 27:29:55
TRACK 06 AUDIO
TITLE "Freeland - We Want Your Soul (Infusion Mix) [Marine Parade]"
INDEX 01 35:30:42
TRACK 07 AUDIO
TITLE "Funk Device - Similarity [1969]"
INDEX 01 42:51:17
TRACK 08 AUDIO
TITLE "Patrick Zygon - Wildlife [Save The Disc]"
INDEX 01 49:51:54
TRACK 09 AUDIO
TITLE "Undo Redo - Pink Driver"
INDEX 01 54:49:46

Hernan Cattaneo- Tracklisting

01. Bjork - Kindness Kind (Delicated Impostors)
02. Ryan Pappa & Jeff Drake - Lost In Vegas
03. Robert Owens - I Go Back (Dean Coleman Mix)
04. Hani - Feel So Good (Berhouz & Andy Dub Mix)
05. Dean Coleman - Kontact [Yoshitoshi]
06. Pavel Bidlo - Tokyo
07. Luke Fair vs Mary J Blidge - Family Affair
08. Vertigo - Never Be Lonely [Eclectic Recordings]

Hernan Cattaneo- Cue Sheet

FILE "C:\Kiss100- (Jul 25 2003)- Part 2- Hernan Cattaneo.mp3" MP3
TRACK 01 AUDIO
TITLE "Bjork - Kindness Kind (Delicated Impostors)"
INDEX 01 00:00:00
TRACK 02 AUDIO
TITLE "Ryan Pappa & Jeff Drake - Lost In Vegas"
INDEX 01 09:40:34
TRACK 03 AUDIO
TITLE "Robert Owens - I Go Back (Dean Coleman Mix)"
INDEX 01 16:28:27
TRACK 04 AUDIO
TITLE "Hani - Feel So Good (Berhouz & Andy Dub Mix)"
INDEX 01 21:59:40
TRACK 05 AUDIO
TITLE "Dean Coleman - Kontact [Yoshitoshi]"
INDEX 01 31:09:03
TRACK 06 AUDIO
TITLE "Pavel Bidlo - Tokyo"
INDEX 01 39:08:04
TRACK 07 AUDIO
TITLE "Luke Fair vs Mary J Blidge - Family Affair"
INDEX 01 43:38:29
TRACK 08 AUDIO
TITLE "Vertigo - Never Be Lonely [Eclectic Recordings]"
INDEX 01 50:51:21

-TC- & -JC-
_________________
"People misunderstand dance music. They think it's something with a drum machine. But what about tango? Or salsa?" Bj?rk (Elle USA, december 1997)