John Digweed @ Centro Fly, New York (Part 2)- Tracklisting

01. ID
02. Astrom - Deep (Jebeq EP)
03. Insight - Prophecy 2003 (Innate & Moor Remix) [Sunkissed]
04. Christian Cambas - It Scares Me (Original Dub) [CDR]
05. West London Deep - Gonna Make U My Lover (Pete Heller Stylus Style Dub)
06. Pete Heller - Stargazin [Junior]
07. Peter Bailey - J' Adore [Harlem]
08. ID
09. Chris Fortier - Whateveritis
10. Quiver - Daylight (Main Mix)
11. ID

John Digweed @ Centro Fly, New York (Part 2)- Cue Sheet

TITLE "01_john_digweed_-_kiss100_(sep_12_2003)" MP3
PERFORMER "john digweed live @ centro fly, new york"
TRACK 01 AUDIO
TITLE "ID"
PERFORMER "ID"
INDEX 01 00:00:00
TRACK 02 AUDIO
TITLE "Deep (Jebeq EP)"
PERFORMER "Astrom"
INDEX 01 02:00:00
TRACK 03 AUDIO
TITLE "Prophecy 2003 (Innate & Moor Remix) [Sunkissed]"
PERFORMER "Insight"
INDEX 01 09:05:00
TRACK 04 AUDIO
TITLE "It Scares Me (Original Dub) [CDR]"
PERFORMER "Christian Cambas"
INDEX 01 15:23:25
TRACK 05 AUDIO
TITLE "Gonna Make U My Lover (Pete Heller Stylus Style Dub)"
PERFORMER "West London Deep"
INDEX 01 20:19:00
TRACK 06 AUDIO
TITLE "Stargazin [Junior]"
PERFORMER "Pete Heller"
INDEX 01 25:55:00
TRACK 07 AUDIO
TITLE "J' Adore [Harlem]"
PERFORMER "Peter Bailey"
INDEX 01 33:05:00
TRACK 08 AUDIO
TITLE "ID"
PERFORMER "ID"
INDEX 01 39:04:00
TRACK 09 AUDIO
TITLE "Whateveritis"
PERFORMER "Chris Fortier"
INDEX 01 41:00:50
TRACK 10 AUDIO
TITLE "Daylight (Main Mix)"
PERFORMER "Quiver"
INDEX 01 49:31:50
TRACK 11 AUDIO
TITLE "ID"
PERFORMER "ID"
INDEX 01 56:08:00

John Digweed Journeys By DJ Volume 4: Silky Mix With John Digweed (1994)- Tracklisting

01. Power Circle - Garden Of Peace
02. BT - Deeper Sunshine
03. Anthony White - Love Me Tonight
04. South Street Players - Who Keeps Changing Your Mind
05. Hardrive - Deep Inside
06. Nicky Hunter - Infatuation
07. Slam - Eterna
08. Volcano - Let Your Body Be Free
09. Advances - Surgestive
10. Horse - Celebrate
11. Leftfield - Open Up
12. Mighty Dub Kats - Keep On Truckin`
13. Duran Duran - Drowning Man
14. Lost Tribe - Give Me A Smile
15. Cool Jack - Try The Feeling
16. Atlantic Ocean - Waterfall
17. Ramp - Rock The Discotek
18. Shi-Take - Don`t Look Back In Anger
19. Carl Lambert - Spotters Delight

John Digweed Journeys By DJ Volume 4: Silky Mix With John Digweed (1994)- Cue Sheet

TITLE "02_john_digweed_-_kiss100_(sep_12_2003)" MP3
PERFORMER "john digweed"
TRACK 01 AUDIO
TITLE "Garden of Peace"
PERFORMER "Power Circle"
INDEX 01 00:00:00
TRACK 02 AUDIO
TITLE "Deeper Sunshine"
PERFORMER "BT"
INDEX 01 05:50:20
TRACK 03 AUDIO
TITLE "Love Me Tonight"
PERFORMER "Anthony White"
INDEX 01 10:27:00
TRACK 04 AUDIO
TITLE "Who Keeps Changing Your Mind"
PERFORMER "South Street Players"
INDEX 01 16:05:00
TRACK 05 AUDIO
TITLE "Deep Inside"
PERFORMER "Hardrive"
INDEX 01 19:45:00
TRACK 06 AUDIO
TITLE "Infatuation"
PERFORMER "Nicky Hunter"
INDEX 01 23:41:00
TRACK 07 AUDIO
TITLE "Eterna"
PERFORMER "Slam"
INDEX 01 28:06:00
TRACK 08 AUDIO
TITLE "Let Your Body Be Free"
PERFORMER "Volcano"
INDEX 01 30:49:00
TRACK 09 AUDIO
TITLE "Surgestive"
PERFORMER "Advances"
INDEX 01 34:15:40
TRACK 10 AUDIO
TITLE "Celebrate"
PERFORMER "Horse"
INDEX 01 37:55:00
TRACK 11 AUDIO
TITLE "Open Up"
PERFORMER "Leftfield"
INDEX 01 40:22:00
TRACK 12 AUDIO
TITLE "Keep On Truckin`"
PERFORMER "Mighty Dub Kats"
INDEX 01 47:28:00
TRACK 13 AUDIO
TITLE "Drowning Man "
PERFORMER "Duran Duran"
INDEX 01 52:37:30
TRACK 14 AUDIO
TITLE "Give Me A Smile"
PERFORMER "Lost Tribe"
INDEX 01 54:48:00

Thanks liquidskyny for the JD TL!
Thanks Sebastian P for both JD cues! Awesome work bro!


-TC- & -JC-
_________________
"People misunderstand dance music. They think it's something with a drum machine. But what about tango? Or salsa?" Bj?rk (Elle USA, december 1997)