John Digweed- Tracklisting

01. Martina Topley-Bird - Soulfood (Charles Webster Mix) [Independiente]
02. M.A.N.D.Y - Achaat [Physical]
03. Randall Jones - Cultral Assertion [CDR]
04. Rocket - Out With The Tide (Jeno's Mix) [Greyhound Records]
05. Juan Ibbora - House Rallante (Hipp-E Dub) [Dark Room Dubs]
06. Gideon Jackson - Gids Tech House [Conceive Records]
07. Kold Feet - Slow Drive [Presslab]
08. Gothek DC - Velvet Skin (Dub) [Stereo Records]
09. DJ Vibe - I'll Take You [Twisted Records]

John Digweed- Cue Sheet

FILE "01- Kiss100 28-03-2004- John Digweed.mp3" MP3
TRACK 01 AUDIO
TITLE "Martina Topley-Bird - Soulfood (Charles Webster Mix) (Independiente)"
INDEX 01 00:00:00
TRACK 02 AUDIO
TITLE "M.A.N.D.Y - Achaat (Physical)"
INDEX 01 06:14:13
TRACK 03 AUDIO
TITLE "Randall Jones - Cultral Assertion (CDR)"
INDEX 01 13:21:16
TRACK 04 AUDIO
TITLE "Rocket - Out With The Tide (Jeno's Mix) (Greyhound Records)"
INDEX 01 20:36:06
TRACK 05 AUDIO
TITLE "Juan Ibbora - House Rallante (Hipp-E Dub) (Dark Room Dubs)"
INDEX 01 27:53:21
TRACK 06 AUDIO
TITLE "Commercial Break"
INDEX 01 33:01:05
TRACK 07 AUDIO
TITLE "Gideon Jackson - Gids Tech House (Conceive Records)"
INDEX 01 34:17:03
TRACK 07 AUDIO
TITLE "Kold Feet - Slow Drive (Presslab)"
INDEX 01 41:34:10
TRACK 08 AUDIO
TITLE "Gothek DC - Velvet Skin (Dub) (Stereo Records)"
INDEX 01 47:16:15
TRACK 09 AUDIO
TITLE "DJ Vibe - I'll Take You (Twisted Records)"
INDEX 01 52:44:21

Chloe Harris- Tracklisting

01. Intro.
02. L?usine - Push [Ghostly International]
03. Julez - Dirty Muffin Breaks [Formerly Known As]
04. Derek Howell - Might As Well Do It While I Can [Unsigned]
05. Pat Foosheen - The Unthinkable (Habersham?s Mah Sivee Mix) [Institution Breaks]
06. Peter Martin - Blue (Further Edit) [Unsigned]
07. Chable & Fernandez - Come To Me (Original Mix) [Screen Recordings]
08. Graham & Blades - Real (Topliner Mix) [Boz Boz]
09. Gwill Morris - Time (Luke Chable Dub) [Skyline Records]
10. Digital Witchcraft - Snowday (Marscruiser Mix) [Institution Online]
11. Chlo? & Turkish - Sweater Bunnies (Lance Cashion Mix) [CP Recordings]

Chloe Harris- Cue Sheet

FILE "Kiss100FMChloeHarris(Mar28,2004)[ms].mp3" MP3
TRACK 01 AUDIO
TITLE "Intro"
INDEX 01 00:00:00
TRACK 02 AUDIO
TITLE "L'usine - Push (Ghostly International)"
INDEX 01 01:08:13
TRACK 03 AUDIO
TITLE "Julez - Dirty Muffin Breaks (Formerly Known As)"
INDEX 01 05:49:04
TRACK 04 AUDIO
TITLE "Derek Howell - Might As Well Do It While I Can (Unsigned)"
INDEX 01 10:44:05
TRACK 05 AUDIO
TITLE "Pat Foosheen - The Unthinkable (Habersham?s Mah Sivee Mix) (Institution Breaks)"
INDEX 01 16:25:02
TRACK 06 AUDIO
TITLE "Peter Martin - Blue (Further Edit) (Unsigned)"
INDEX 01 24:16:24
TRACK 07 AUDIO
TITLE "Chable & Fernandez - Come To Me (Original Mix) (Screen Recordings)"
INDEX 01 28:41:23
TRACK 08 AUDIO
TITLE "Graham & Blades - Real (Topliner Mix) (Boz Boz)"
INDEX 01 37:02:04
TRACK 09 AUDIO
TITLE "Gwill Morris - Time (Luke Chable Dub) (Skyline Records)"
INDEX 01 43:53:24
TRACK 10 AUDIO
TITLE "Digital Witchcraft - Snowday (Marscruiser Mix) (Institution Online)"
INDEX 01 51:43:19
TRACK 11 AUDIO
TITLE "Chlo? & Turkish - Sweater Bunnies (Lance Cashion Mix) (CP Recordings)"
INDEX 01 57:06:20

Congrats & Respect Chloe!
Big Thanks to FM for the JD & Chloe cuesheets!


-JC- & -TC-
_________________
Everything in moderation, including moderation.