John Digweed- Tracklisting

1 Invisible Inc - Stars (Unbroken Mix) [Sumsonic]
2 Deep Dish pres Quench - Unknown (Echomen Remix)
3 Chris Fortier - Des [Fade]
4 Mara feat Randall Jones - 1974 [CDR]
5 Darko & Jules - Wednesday Afternoon
6 Noon at - Down the Room [Treibstoff Records]
7 Taylor & Meehan - Simplicity [Vapour]
8 AO - The Ding Dong Track
9 Orange Bud - Blend [2 Audio]

John Digweed- Cue Sheet

TITLE "John Digweed - Kiss 100 - 2004-05-16"
FILE "John Digweed - Kiss 100 - 2004-05-16.mp3" MP3

TRACK 01 AUDIO
TITLE "Invisible Inc - Stars (Unbroken Mix) [Sumsonic]"
INDEX 01 00:00:00

TRACK 02 AUDIO
TITLE "Deep Dish pres. Quench - Unknown (Echomen Remix)"
INDEX 01 06:35:29

TRACK 03 AUDIO
TITLE "Chris Fortier - Des [Fade]"
INDEX 01 13:08:52

TRACK 04 AUDIO
TITLE "Mara feat Randall Jones - 1974 [CDR]"
INDEX 01 20:15:49

TRACK 05 AUDIO
TITLE "Darko & Jules - Wednesday Afternoon"
INDEX 01 26:46:17

TRACK 06 AUDIO
TITLE "Noon at - Down the Room [Treibstoff Records]"
INDEX 01 32:35:52

TRACK 07 AUDIO
TITLE "Taylor & Meehan - Simplicity [Vapour]"
INDEX 01 38:46:28

TRACK 08 AUDIO
TITLE "AO - The Ding Dong Track"
INDEX 01 46:09:45

TRACK 09 AUDIO
TITLE "Orange Bud - Blend [2 Audio]"
INDEX 01 53:35:28


Austin Leeds- Tracklisting

1 Eddie Amadour - Shake it (Dean Coleman WMC poolside dub) [Yoshitoshi]
2 Vibe Residents - Temptation (DC MIX)
3 Danny Sullivan and Kemist - Wicked [Hamachi]
4 U & K - DODA [CDR]
5 Ozgar Can - Over Nothing At All [Lost Language]
6 Filterheadz - Yimanya [Additive]
7 Jose Zamora - Lochness EP [Lowriders]
8 Sinsweeper - Highest of the High [Hamachi]
9 DJ Copa - Groovin you (Sinesweeper Remix) [Vandetta]

Austin Leeds- Cue Sheet

TITLE "John Digweed - Kiss 100 - 2004-05-16 - Austin Leeds"
FILE "John Digweed - Kiss 100 - 2004-05-16 - Austin Leeds.mp3" MP3

TRACK 01 AUDIO
TITLE "Eddie Amadour - Shake it (Dean Coleman WMC poolside dub) [Yoshitoshi]"
INDEX 01 00:00:00

TRACK 02 AUDIO
TITLE "Vibe Residents - Temptation (DC MIX)"
INDEX 01 07:43:11

TRACK 03 AUDIO
TITLE "Danny Sullivan and Kemist - Wicked [Hamachi]"
INDEX 01 13:06:35

TRACK 04 AUDIO
TITLE "U & K - DODA [CDR]"
INDEX 01 22:07:55

TRACK 05 AUDIO
TITLE "Ozgar Can - Over Nothing At All [Lost Language]"
INDEX 01 28:45:12

TRACK 06 AUDIO
TITLE "Filterheadz - Yimanya [Additive]"
INDEX 01 36:05:00

TRACK 07 AUDIO
TITLE "Jose Zamora - Lochness EP [Lowriders]"
INDEX 01 43:32:17

TRACK 08 AUDIO
TITLE "Sinsweeper - Highest of the High [Hamachi]"
INDEX 01 50:55:48

TRACK 09 AUDIO
TITLE "DJ Copa - Groovin you (Sinesweeper Remix) [Vandetta]"
INDEX 01 56:29:32

Thanks Shadowspan for the quick update on JD and Austin Leeds tracklist
Thanks the sun and the sea for both cues


-A-
_________________
"Very funny, Scotty. Now beam up my clothes"

Look at my pics! ---> [Only registered and activated users can see links. ]