John Digweed- Tracklisting

1 Lo Step - Burma
2 Soul Mekanik - Colour Spectrum [RIP]
3 Chakinka - Ether Radio [Island]
4 Foolish & Sly - Come A Little Closer [Cynic]
5 Astro & Glyde - Aimless Dame (Randall Jones Mix)
6 Black Santa - Sexy College Amateur [Drenched]
7 16 Bit Lolitas - Martian Ambassador [Low Riders]
8 Steve Porter - Farina [FDS]

John Digweed- Cue Sheet

TITLE "John Digweed - Kiss 100 - 2004-05-23.mp3"
FILE "John Digweed - Kiss 100 - 2004-05-23.mp3" MP3

TRACK 01 AUDIO
TITLE "Lo Step - Burma"
INDEX 01 00:00:00

TRACK 02 AUDIO
TITLE "Soul Mekanik - Colour Spectrum [RIP]"
INDEX 01 10:31:47

TRACK 03 AUDIO
TITLE "Chakinka - Ether Radio [Island]"
INDEX 01 16:57:31

TRACK 04 AUDIO
TITLE "Foolish & Sly - Come A Little Closer [Cynic]"
INDEX 01 23:47:09

TRACK 05 AUDIO
TITLE "Astro & Glyde - Aimless Dame (Randall Jones Mix)"
INDEX 01 30:56:15

TRACK 06 AUDIO
TITLE "Black Santa - Sexy College Amateur [Drenched]"
INDEX 01 38:28:50

TRACK 07 AUDIO
TITLE "16 Bit Lolitas - Martian Ambassador [Low Riders]"
INDEX 01 45:25:35

TRACK 08 AUDIO
TITLE "Steve Porter - Farina [FDS]"
INDEX 01 54:36:48

16b- Tracklisting

01 LFO - LFO
02 Alexander Kowalski - We keep on rockin?! [Kanzleramt]
03 Sunday on weed - Out of time [Ambience records]
04 Sunday on weed - Out of time (16B?s Beez mix) [Ambience records]
05 Sapphirecut - Come2gether (16B remix) [Twisted]
06 Avus - Real (Nathan Fake remix) [Border Community]
07 DCM Vs Cody - Dirty B. [Sexonwax]
08 unknown - unknown
09 Nicolas V. - unknown
10 Bonus Beats - unknown
11 The Smile - Omid?s Smile Vs Deep Impact [Alola]
12 Talk Talk - Its my Life (16B remix) [Sexonwax]

16b- Cue Sheet

TITLE "John Digweed - Kiss 100 - 2004-05-23 - 16b"
FILE "John Digweed - Kiss 100 - 2004-05-23 - 16b.mp3" MP3

TRACK 01 AUDIO
TITLE "ID - ID"
INDEX 01 00:00:00

TRACK 02 AUDIO
TITLE "ID - ID"
INDEX 01 07:17:05

TRACK 03 AUDIO
TITLE "ID - ID"
INDEX 01 13:44:29

TRACK 04 AUDIO
TITLE "ID - ID"
INDEX 01 17:59:48

TRACK 05 AUDIO
TITLE "ID - ID"
INDEX 01 26:15:16

TRACK 06 AUDIO
TITLE "ID - ID"
INDEX 01 33:53:07

TRACK 07 AUDIO
TITLE "ID - ID"
INDEX 01 40:19:54

TRACK 08 AUDIO
TITLE "ID - ID"
INDEX 01 47:26:26

TRACK 09 AUDIO
TITLE "ID - ID"
INDEX 01 49:32:13

Thanks Shadowspan for JD tracklist
Thanks the sun and the sea both cue sheets
Thanks pdowney for spotting 16b tracks
Thanks ps03 for 16b tracklist


-A-