John Digweed- Tracklisting

01. Jeff Mills - Expanded EP [Acess]
02. Pete Moss - Strive To Live [Alola]
03. Brolofski - Hardfloor [Hardfloor Records]
04. Jeff Mills - Expanded EP [Acess]
05. Surge Santiago - Bad Passion
06. Pid & Dan - Freedom [Submission]
07. Kinnie Starr - Alright (Rui De Silva Mix) [Release Records]
08. Swith & Macgyver - Project 99 [B Code]

John Digweed- Cue Sheet

TITLE "John Digweed - Kiss 100 - 2004-05-30"
FILE "John Digweed - Kiss 100 - 2004-05-30.mp3" MP3

TRACK 01 AUDIO
TITLE "Jeff Mills - Expanded EP [Acess]"
INDEX 01 00:00:00

TRACK 02 AUDIO
TITLE "Pete Moss - Strive To Live [Alola]"
INDEX 01 07:26:24

TRACK 03 AUDIO
TITLE "Brolofski - Hardfloor [Hardfloor Records]"
INDEX 01 14:03:47

TRACK 04 AUDIO
TITLE "Jeff Mills - Expanded EP [Acess]"
INDEX 01 19:05:50

TRACK 05 AUDIO
TITLE "Surge Santiago - Bad Passion"
INDEX 01 25:34:21

TRACK 06 AUDIO
TITLE "Pid & Dan - Freedom [Submission]"
INDEX 01 34:27:43

TRACK 07 AUDIO
TITLE "Kinnie Starr - Alright (Rui De Silva Mix) [Release Records]"
INDEX 01 40:31:01

TRACK 08 AUDIO
TITLE "Swith & Macgyver - Project 99 [B Code]"
INDEX 01 47:31:14

Karlos Elizondo- Tracklisting

01. The MFA - 2 Billion Years Journey [EQ GREY]
02. Chris Micali & Emjae - Unknown [CDR]
03. Juan Mangan - Untitled
04. Habersham - Untitled
05. Kosmas Epsilon feat. Eleana - Shame? [EQ GREY]
06. Matthew Dekay feat. Doves & Rob V - Behind Secret Borders [DEKAY]
07. Hawaii - Nevermind
08. Unknown
09. Rowan Blades & Chris Lake - Page Lake [CDR]
10. Phil Kieran - I Love You [YOSHITOSHI]
11. Sander Van Doorn - Loaded (S.V.D. Remix) [OXYGEN]
12. Trafik - Your Light (Luke Chable 4.4 Dub) [GU:MUSIC]

Karlos Elizondo- Cue Sheet
TITLE "John Digweed - Kiss 100 - 2004-05-30 - Karlos Elizondo"
FILE "John Digweed - Kiss 100 - 2004-05-30 - Karlos Elizondo.mp3" MP3

TRACK 01 AUDIO
TITLE "ID - ID"
INDEX 01 00:00:00

TRACK 02 AUDIO
TITLE "ID - ID"
INDEX 01 07:41:54

TRACK 03 AUDIO
TITLE "ID - ID"
INDEX 01 14:10:03

TRACK 04 AUDIO
TITLE "ID - ID"
INDEX 01 18:54:39

TRACK 05 AUDIO
TITLE "ID - ID"
INDEX 01 22:22:22

TRACK 06 AUDIO
TITLE "ID - ID"
INDEX 01 26:20:51

TRACK 07 AUDIO
TITLE "ID - ID"
INDEX 01 29:19:28

TRACK 08 AUDIO
TITLE "ID - ID"
INDEX 01 31:39:06

TRACK 09 AUDIO
TITLE "ID - ID"
INDEX 01 35:50:25

TRACK 10 AUDIO
TITLE "Rowan Blades & Chris Lake - Untitled"
INDEX 01 42:09:28

TRACK 11 AUDIO
TITLE "ID - ID"
INDEX 01 49:10:24

TRACK 12 AUDIO
TITLE "Sander Van Doorn - Loaded (SVD Remix)"
INDEX 01 51:34:11

TRACK 13 AUDIO
TITLE "Luke Chable - Your Light"
INDEX 01 58:42:12

Thanks the sun and the sea for this week tracklists and cue sheets!
Thanks Nermal and SeanBratensen for tracklist corrections

_________________
"Very funny, Scotty. Now beam up my clothes"

Look at my pics! ---> [Only registered and activated users can see links. ]