Payment options
Results 1 to 1 of 1

Thread: May 27th 2007 - John Digweed + Robert Babicz

  1. #1
    Platinum Poster herre's Avatar
    Join Date
    Jun 2004
    Location
    Cologne, Germany
    Age
    37
    Posts
    1,235

    May 27th 2007 - John Digweed LIVE + Robert Babicz

    Kiss 100 - 2007-05-27 Part 1 - John Digweed Live From Fabric, London, UK
    01. Matthew Herbert - The Audience (Martinez Cosmic Re-Edit) [Studio !K7]
    02. 3 Channels - Night Track (Phage And Daniel Dreier Remix) [Channels Records]
    03. Jack Rock - Morning Electric [WIR]
    04. ID
    05. David Keno - Liquid [Keno Records]
    06. Falko Brocksieper - Esque [Sub Static]
    07. ID
    08. Sebastian Roya - Compresi?n (Original Mix) [Connaisseur Sup?rieur]
    09. Motorcitysoul - State Of Mind [Lofi Stereo Germany]
    10. Antena - Camino Del Sol (Joakim Remix) [Permanent Vacation]

    REM DATE 2007
    REM COMMENT made by HERRE FOR [TRACKLISTINGS.NET]
    PERFORMER "John Digweed"
    TITLE "Kiss 100 Mix (27.05.2007)"
    FILE "Kiss 100 Mix - 2007-05-27 - John Digweed, Live From Fabric, London, UK.mp3" MP3
    TRACK 01 AUDIO
    INDEX 01 00:00:00
    TRACK 02 AUDIO
    INDEX 01 08:44:00
    TRACK 03 AUDIO
    INDEX 01 13:19:00
    TRACK 04 AUDIO
    INDEX 01 19:53:00
    TRACK 05 AUDIO
    INDEX 01 25:33:00
    TRACK 06 AUDIO
    INDEX 01 31:44:00
    TRACK 07 AUDIO
    INDEX 01 37:43:00
    TRACK 08 AUDIO
    INDEX 01 43:53:00
    TRACK 09 AUDIO
    INDEX 01 48:18:00
    TRACK 10 AUDIO
    INDEX 01 53:54:00

    Kiss 100 - 2007-05-27 Part 2 - Robert Babicz
    01. ID
    02. Robert Babicz - SilverRain
    03. Gui Boratto - Mr. Decay (Robert Babicz Universum Disco Mix)
    04. Robert Babicz - Sin
    05. ID
    06. Robert Babicz - Milo's Groove
    07. Robert Babicz - Look
    08. Robert Babicz - Chrystal Castle
    09. Robert Babicz - Sonntag
    10. Robert Babicz - Warsaw

    PM jimmy/herre with additions and/or changes to tracklists and cuesheets.
    Last edited by TomTom; June 28, 2007 at 12:57:10 PM.

Thread Information

Users Browsing this Thread

There are currently 1 users browsing this thread. (0 members and 1 guests)

Similar Threads

  1. Transitions
    Kiss 100 and Transitions Sets & Requests
    By Gatz in forum John Digweed
    Replies: 713
    Last Post: December 19, 2018, 12:00:35 PM
  2. John Digweed in Munich! 1st Feb 2007
    By sascha in forum Europe
    Replies: 1
    Last Post: January 26, 2007, 09:57:52 AM
  3. Replies: 72
    Last Post: August 4, 2006, 07:09:34 PM
  4. Replies: 0
    Last Post: June 16, 2004, 10:43:10 PM

Posting Permissions

  • You may not post new threads
  • You may not post replies
  • You may not post attachments
  • You may not edit your posts
  •