Results 1 to 1 of 1

Thread: July 22nd 2007 - John Digweed + One+One

  1. #1
    Getting warmed up
    Join Date
    Feb 2005
    Location
    Greece
    Age
    31
    Posts
    70

    July 22nd 2007 - John Digweed + One+One

    Kiss 100 - 2007-07-22 Part 1 - John Digweed

    01. Will Saul - Simple [Simple Records]
    02. Paul Hughes - Vault [Crosstown Rebels]
    03. U & K - After Before [Slave Recordings]
    04. Marlow & Claudia Nehls - Water (Daniel Stefanik Remix) [Moon Harbour]
    05. Jeff Bennett - I Thought It Was [Kickin Records]
    06. Oscar - Snugg (Gennaro Rossi Remix) [Lurdag]
    07. Amir Ad Fontes - Virtual Nature (Original Mix) [Big City Beats]
    08. Kiki - Grant Crew
    09. David K - Luna [Supplement Facts]

    PERFORMER "John Digweed"
    TITLE "Kiss 100 Mix (22.07.2006)"
    FILE "Kiss 100 Mix - 2007-07-22 - John Digweed.mp3" MP3
    TRACK 01 AUDIO
    INDEX 01 00:00:00
    TRACK 02 AUDIO
    INDEX 01 06:39:00
    TRACK 03 AUDIO
    INDEX 01 12:41:00
    TRACK 04 AUDIO
    INDEX 01 19:12:00
    TRACK 05 AUDIO
    INDEX 01 25:42:00
    TRACK 06 AUDIO
    INDEX 01 29:45:00
    TRACK 07 AUDIO
    INDEX 01 35:17:00
    TRACK 08 AUDIO
    INDEX 01 42:03:00
    TRACK 09 AUDIO
    INDEX 01 50:42:00

    Kiss 100 - 2007-07-22 Part 2 - One + One

    01. ID
    02. Yaron Cohen - Polar Lights (Dave Robertson Remix) [Brandnewvibe Recordings]
    03. Marcus Worgull - Dragon Loop
    04. Resoul - Lets Go To Mexico [Mode Music]
    05. The KLF - 3am Eternal (Remix)
    06. Phonique Feat. Erlend Oye - Casualities [Dessous Recordings]
    07. James Zabiela - Phaser Fire [Renaissance]
    08. Popof - Alcoolic
    09. Deadmau5 - Not Exactly [mau5trap Recordings]
    10. Solee - Impressed (Original Mix) [Le Bien Et Le Mal]
    11. Aril Brikha - Winter [Kompakt]
    12. ID

    PERFORMER "One + One"
    TITLE "Kiss 100 Mix (22.07.2006)"
    FILE "Kiss 100 Mix - 2007-07-22 - One + One.mp3" MP3
    TRACK 01 AUDIO
    INDEX 01 00:00:00
    TRACK 02 AUDIO
    INDEX 01 01:55:00
    TRACK 03 AUDIO
    INDEX 01 07:46:00
    TRACK 04 AUDIO
    INDEX 01 12:12:00
    TRACK 05 AUDIO
    INDEX 01 16:57:00
    TRACK 06 AUDIO
    INDEX 01 23:34:00
    TRACK 07 AUDIO
    INDEX 01 27:46:00
    TRACK 08 AUDIO
    INDEX 01 29:51:00
    TRACK 09 AUDIO
    INDEX 01 34:41:00
    TRACK 10 AUDIO
    INDEX 01 41:24:00
    TRACK 11 AUDIO
    INDEX 01 47:40:00
    TRACK 12 AUDIO
    INDEX 01 51:34:00

    PM jimmy/herre with additions and/or changes to tracklists and cuesheets.
    Last edited by Jimmy; August 28, 2007 at 10:31:27 PM.
    Nothing is like something u really loved!

Thread Information

Users Browsing this Thread

There are currently 1 users browsing this thread. (0 members and 1 guests)

Similar Threads

  1. How much music do you have?
    By clintlove in forum General Yakkity Yak
    Replies: 323
    Last Post: January 22, 2011, 02:04:36 AM
  2. July 23rd, 2005 John Digweed + Ko Kimura
    By arielus in forum 2005
    Replies: 0
    Last Post: July 30, 2005, 10:20:52 AM
  3. Replies: 0
    Last Post: August 22, 2004, 01:03:37 PM
  4. Replies: 0
    Last Post: July 25, 2004, 01:34:54 PM
  5. Replies: 0
    Last Post: June 16, 2004, 10:43:10 PM

Posting Permissions

  • You may not post new threads
  • You may not post replies
  • You may not post attachments
  • You may not edit your posts
  •