Kiss 100 - 2008-01-27 Part 1 - John Digweed
01 - ID
02 - Pryda - Armed [Pryda Recordings]
03 - Chab & JD Davis - Girlz (Chab Imago Remix) [MConvene]
04 - Brett Johnson - It's The Underground (Sneak's Subdub Mix/Eric Prydz Edit) [Magnetic]
05 - ID
06 - ID
07 - Antena - Camino Del Sol (Joakim Remix) [Permanent Vacation]
08 - Faze Action - In The Trees (Carl Craig C2 Remix # 1) [Juno Records]
09 - Nic Fanciulli - Cat Out Of The Bag (Jim Rivers Remix) [Renaissance]

REM GENRE House
REM DATE 2008
REM COMMENT made by www.tracklistings.net
REM COMPOSER http://www.johndigweed.com/
REM WWW http://www.tracklistings.net/
PERFORMER "John Digweed"
TITLE "Kiss 100 Mix (27.01.200"
FILE "Kiss 100 Mix - 2008-01-27 - John Digweed, Live At Vanguard, Los Angeles, USA (02.09.2007).mp3" MP3
TRACK 01 AUDIO
INDEX 01 00:00:00
TRACK 02 AUDIO
INDEX 01 02:50:00
TRACK 03 AUDIO
INDEX 01 08:28:00
TRACK 04 AUDIO
INDEX 01 16:05:00
TRACK 05 AUDIO
INDEX 01 25:03:00
TRACK 06 AUDIO
INDEX 01 30:02:00
TRACK 07 AUDIO
INDEX 01 35:48:00
TRACK 08 AUDIO
INDEX 01 43:10:00
TRACK 09 AUDIO
INDEX 01 49:57:00

Kiss 100 - 2008-01-27 Part 2 - Pedro Puentes

no t/l available

PM jimmy/herre with additions and/or changes to tracklists and cuesheets.