John Digweed tracklist

1 Dub Disaster - Sausage Dig [Avalanche]
2 DJ Mikele & Liquid Light - Urban Winds [Heavy Trax]
3 Mooncat - Blue Screen [Tribestuff]
4 Hakan Libdo - Fieldwork [Frogman Japan]
5 Alexi Delano - Im Gonna Get You [Syndicato]
6 Meeks & Ernest St Laurent - Scrambled [Bug Division]
7 Gods Uncle - Overlookers [Bustin Loose]
8 Teleport - Pump & Spray [Porn]
9 Chris Poindexter - Tribal Thing [Spiral Trax]


John Digweed cuesheet


DJ Three tracklist

1 ??? - Trapez [09]
2 Nathan Fake - Sky Was Pink (Holden remix) [Border community]
3 I:Robots - Spacer Woman [Elettrica]
4 Hiem - She's the One (M. Johnson remix) [Crosstown Rebels]
5 Soulwax - NY Excuse [Pias Records]
6 Andre Kraml - Safari (Holden remix) [Crosstown Rebels]
7 Mylo - Destroy Rock & Roll (Riton Rerub) [Breastfed]
8 Losoul feat. Malte - You Know (Long ver.) [playhouse]
9 Kiki - This is the End of the World [bPitch Control]
10 Marc Houle - East to West [Minus ]
11 Robag Wruhme - KTB [Sonar Kollektiv]
12 Michoacan - Broken Heart [Grayhound]
13 Kaos - Boogie Boy [K7]

DJ Three cuesheet

PERFORMER "DJ Three"
TITLE "Kiss 100 John Digweed Guest Mix (2005-01-30)"
FILE "DJ Three - Kiss 100 John Digweed Guest Mix (2005-01-30).mp3" MP3
TRACK 01 AUDIO
TITLE ""
PERFORMER ""
INDEX 01 00:00:00
TRACK 02 AUDIO
TITLE "The Sky Was Pink (Holden Remix) (Border Community)"
PERFORMER "Nathan Fake"
INDEX 01 02:34:00
TRACK 03 AUDIO
TITLE "Spacer Woman (Elettrica)"
PERFORMER "Oxtongue"
INDEX 01 06:40:00
TRACK 04 AUDIO
TITLE "She's The One (Circles In Time Remix By Mathew Jonson) (Crosstown Rebels)"
PERFORMER "Hiem"
INDEX 01 12:36:00
TRACK 05 AUDIO
TITLE "NY Excuse (Extended) (PIAS Belgium)"
PERFORMER "Soulwax"
INDEX 01 20:10:00
TRACK 06 AUDIO
TITLE "Safari (James Holden Remix) (Crosstown Rebels)"
PERFORMER "Andr? Kraml"
INDEX 01 25:17:00
TRACK 07 AUDIO
TITLE "Destroy Rock & Roll (Riton Version) (Breastfed)"
PERFORMER "Mylo"
INDEX 01 31:44:00
TRACK 08 AUDIO
TITLE "You Know (Long Version) (Playhouse)"
PERFORMER "LoSoul"
INDEX 01 36:27:00
TRACK 09 AUDIO
TITLE "The End Of The World (Bpitch Control)"
PERFORMER "Kiki"
INDEX 01 41:18:00
TRACK 10 AUDIO
TITLE "East To West (Minus)"
PERFORMER "Marc Houle"
INDEX 01 45:50:00
TRACK 11 AUDIO
TITLE "K.T.B. (Sonar Kollektiv)"
PERFORMER "Robag Wruhme"
INDEX 01 49:49:00
TRACK 12 AUDIO
TITLE "Broken Heart (Grayhound)"
PERFORMER "Michoacan"
INDEX 01 52:54:00
TRACK 13 AUDIO
TITLE "Boogie Boy (Studio !K7)"
PERFORMER "Kaos"
INDEX 01 56:50:00

Thanks to [Only registered and activated users can see links. ] for the jd t/l, thanks to Jenks for the DJ Three t/l, thanks to djpeanut for the DJ Three cuesheet