PDA

View Full Version : January 8th, 2006 - John Digweed + Guy Gerber



skahound
January 11, 2006, 12:00:18 AM
John Digweed Tracklist:
LK-Pro - Romper Stomper [Mutekki]
Cirez D - Re-Match [Mouseville]
Union Jack - Two Full Moons & A Trout (Luke Chable Remix) [Platipus]
Pete Lazonby - Sacred Cycles (Peter Martin Remix)
Bedrock - Santiago (Hernan Cattaneo & Martin Garcia Vocal Remix)
Derek Howell
Depeche Mode - A Pain That I'm Used To (Jacques Lu Cont Remix) [Mute Records]
Underworld - Play Pig [Underworldlive.com]

[b]John Digweed Cuesheet:
PERFORMER "John Digweed"
TITLE "Kiss 100 Mix (08.01.2006)"
FILE "Kiss 100 Mix - 2005-01-08 - John Digweed.mp3" MP3
TRACK 01 AUDIO
INDEX 01 00:00:00
TRACK 02 AUDIO
INDEX 01 05:00:00
TRACK 03 AUDIO
INDEX 01 11:20:00
TRACK 04 AUDIO
INDEX 01 20:46:00
TRACK 05 AUDIO
INDEX 01 26:58:00
TRACK 06 AUDIO
INDEX 01 35:35:00
TRACK 07 AUDIO
INDEX 01 43:28:00
TRACK 08 AUDIO
INDEX 01 50:23:00

Guy Gerber Tracklist:
1. Guy Gerber - Mogly
2. Instant Noodles - Decibel Magic (Swag Remix)
3. Bob Sinclar - If I Was
4. Henney - Me & My Moog (Cass & Tom Mangan Remix)
5. EgoExpress - Knartz IV
6. Trentemøller - Beta Boy
7. Streo MC's - Paradise (Poul Mix)
8. Guy Gerber - Sticky Fingers (Shlomi Aber Mix)
9. A Jackin Phreak - Raw Jackin
10. Dexter - I Don't Care (Dub Version)
11. Caged Baby - 16 Lovers (Lottie & Serge Santiago Remix)
12. Daft Punk - Technologic (Vitalic Remix)
13. Sharon Phillips - What To Need (Trentemøller Remix)

Guy Gerber Cuesheet

Thanks to herre & nomeda for JD tracklist
Thanks to herre for JD cuesheet
Thanks to herre for Guy Gerber tracklist

PM skahound with tracklists and cuesheets