PDA

View Full Version : January 15th, 2006 - John Digweed + Slacker



skahound
January 15, 2006, 09:58:49 AM
John Digweed Tracklist:
Derek Howell - It up
Suicide Sports Club - I Don't Know (Luke Dzierzek Dub Remix)
Slok - Lonely Child (Satoshi Tomiie 3D Remix) [Saw Recordings]
The Low End Specialists - Inside That (Trent Cantrelle Remix)
16 Bit Lolitas - Sadina
Introvert - From The Depths [Winds West Recordings]
Chris Udoh - Angels [URBAN TORQUE]


[b]John Digweed Cuesheet:
PERFORMER "John Digweed"
TITLE "Kiss 100 Mix (15.01.2006)"
FILE "Kiss 100 Mix - 2005-01-15 - John Digweed.mp3" MP3
TRACK 01 AUDIO
INDEX 01 00:00:00
TRACK 02 AUDIO
INDEX 01 09:13:00
TRACK 03 AUDIO
INDEX 01 15:07:00
TRACK 04 AUDIO
INDEX 01 25:02:00
TRACK 05 AUDIO
INDEX 01 32:04:00
TRACK 06 AUDIO
INDEX 01 39:55:00
TRACK 07 AUDIO
INDEX 01 48:33:00


Slacker Tracklist:
Obsessive Intro
Flow - Truth & Sunshine (Funk Void Mix)
John Tejada - Paranoia
Skystate - Soundflower One
Alex Dolby - Obsessive Sound (Niki B & Christian E.F.F.E. Remix)
Elektrochemie - Vexed
John Dahlback - It Feels So Good
Warren G - Make It Do What It Do (Sharam Jey Remix)
Sascha Funke - Forms & Shapes (Paul Kalkbrenner Remix)
Flying Doctors - We Make Contact (Oliver Lieb Remix)
THE F.T.T. - Make it Good (Fuzzy Hair)
Delicious - Let It Drop
Mode Hookers vs Cassius - Breath The Sound of Violence

Slacker Cuesheet
PERFORMER "Slacker"
TITLE "Kiss 100 Mix (15.01.2006)"
FILE "Kiss 100 Mix - 2006-01-15 - Slacker.mp3" MP3
TRACK 01 AUDIO
INDEX 01 00:00:00
TRACK 02 AUDIO
INDEX 01 07:23:00
TRACK 03 AUDIO
INDEX 01 12:16:00
TRACK 04 AUDIO
INDEX 01 16:24:00
TRACK 05 AUDIO
INDEX 01 20:51:00
TRACK 06 AUDIO
INDEX 01 28:24:00
TRACK 07 AUDIO
INDEX 01 31:52:00
TRACK 08 AUDIO
INDEX 01 36:14:00
TRACK 09 AUDIO
INDEX 01 40:57:00
TRACK 10 AUDIO
INDEX 01 46:19:00
TRACK 11 AUDIO
INDEX 01 51:27:00
TRACK 12 AUDIO
INDEX 01 57:05:00

Thanks to herre & SolarB for JD tracklist
Thanks to herre for JD cuesheet
Thanks to djkrisb, nomeda, SolarB, & herre for Slacker tracklist
Thanks to nomeda & herre for Slacker cuesheet

PM skahound with tracklists and cuesheets