PDA

View Full Version : September 1st, 2000 John Digweed + Deep Dish



arielus
August 8, 2004, 01:18:02 PM
John Digweed tracklist

01. Datar - B (Tarantella Mix) [Hooj Choons]
02. Second Hand Satellites - Orbit 1.1 [Hallucination]
03. Teimoso feat. Shelley Preston - Riding [Hooj]
04. Steve Lawler - Rise In (16B Mix)
05. Jimmy Van M - E.C.P.S. (Medway Mix) [Fluid UK]
06. Evol-D - Insect [Bedrock]
07. Home & Garden pres. Nkemdi - Invitation (John Creamer Mix) [Central Park]

[b]John Digweed cuesheet
TITLE "John Digweed - Kiss 100 - 2000-09-01.mp3"
FILE "John Digweed - Kiss 100 - 2000-09-01.mp3" MP3

TRACK 01 AUDIO
TITLE "Datar - B (Tarantella Mix) [Hooj Choons]"
INDEX 01 00:00:00

TRACK 02 AUDIO
TITLE "Second Hand Satellites - Orbit 1.1 [Hallucination]"
INDEX 01 04:03:50

TRACK 03 AUDIO
TITLE "Teimoso feat. Shelley Preston - Riding [Hooj]"
INDEX 01 12:01:24

TRACK 04 AUDIO
TITLE "Steve Lawler - Rise In (16B Mix) "
INDEX 01 20:43:19

TRACK 05 AUDIO
TITLE "Jimmy Van M - E.C.P.S. (Medway Mix) [Fluid UK]"
INDEX 01 27:16:52

TRACK 06 AUDIO
TITLE "Evol-D - Insect [Bedrock]"
INDEX 01 36:13:20

TRACK 07 AUDIO
TITLE "Home & Garden pres. Nkemdi - Invitation (John Creamer Mix) [Central Park]"
INDEX 01 44:03:23


[b]Deep Dish tracklist

John Digweed - Kiss 100 - 2000-09-01 - Deep Dish - Live at Bedrock - Part 01

01. Weekend World - The Word [Weekend World]
02. Weekend World - The Word (Dub Mix) [Weekend World]
03. Dusted - Respect & Honour Your Mother (Deep Dish Mix) [Go Beat]
04. New Phunk Theory - Always (Vocal Mix) [Airtight]
05. Datar - B (Tarantella & Redanka's NYSC Mix) [Hooj Choons]
06. Sunkissed - Spellbound [Unknown]
07. Drum Guru - 12AM [Trackdown Recs]
08. Autokat - Gimme The Beat [Yoshitoshi]

Deep Dish cuesheet

TITLE "John Digweed - Kiss 100 - 2000-09-01 - Deep Dish - Live at Bedrock - Part 01"
FILE "John Digweed - Kiss 100 - 2000-09-01 - Deep Dish - Live at Bedrock - Part 01.mp3" MP3

TRACK 01 AUDIO
TITLE "Weekend World - The Word [Weekend World]"
INDEX 01 00:00:00

TRACK 02 AUDIO
TITLE "Weekend World - The Word (Dub Mix) [Weekend World]"
INDEX 01 08:48:41

TRACK 03 AUDIO
TITLE "Dusted - Respect & Honour Your Mother (Deep Dish Mix) [Go Beat]"
INDEX 01 14:19:13

TRACK 04 AUDIO
TITLE "New Phunk Theory - Always (Vocal Mix) [Airtight]"
INDEX 01 25:35:21

TRACK 05 AUDIO
TITLE "Datar - B (Tarantella & Redanka's NYSC Mix) [Hooj Choons]"
INDEX 01 31:57:01

TRACK 06 AUDIO
TITLE "Sunkissed - Spellbound [Unknown]"
INDEX 01 40:34:34

TRACK 07 AUDIO
TITLE "Drum Guru - 12AM [Trackdown Recs]"
INDEX 01 47:35:45

TRACK 08 AUDIO
TITLE "Autokat - Gimme The Beat [Yoshitoshi]"
INDEX 01 54:00:43


thanks the sun and the sea for tracklists and cuesheets