PDA

View Full Version : September 9th, 2000 John Digweed + Deep Dish



arielus
August 8, 2004, 01:21:13 PM
John Digweed tracklist

01. Lexicon Avenue - Midnight On West 27th Street [Forensic]
02. Freak Project - Beat Of A Drum (Steve Lawler Mix) [Soul Brother]
03. Raffen - Undertone [V2 France]
04. Souldoubt - Where Now [Special Needs]
05. Velvet Girl - Walking On Sunshine (Cass & Slide Mix) [Additive]
06. Andreas Kauffelt - Bitcrusher [Aural Satisfaction Germany]
07. Way Out West - The Fall (Bedrock Mix) [Pioneer]
08. Groova - Unselfconscious (Luzon Remix) [Music Now]

John Digweed cuesheet
TITLE "John Digweed - Kiss 100 - 2000-09-08"
FILE "John Digweed - Kiss 100 - 2000-09-08.mp3" MP3

TRACK 01 AUDIO
TITLE "Lexicon Avenue - Midnight On West 27th Street [Forensic]"
INDEX 01 00:00:00

TRACK 02 AUDIO
TITLE "Freak Project - Beat Of A Drum (Steve Lawler Mix) [Soul Brother]"
INDEX 01 07:02:05

TRACK 03 AUDIO
TITLE "Raffen - Undertone [V2 France]"
INDEX 01 12:37:37

TRACK 04 AUDIO
TITLE "Souldoubt - Where Now [Special Needs]"
INDEX 01 19:11:19

TRACK 05 AUDIO
TITLE "Velvet Girl - Walking On Sunshine (Cass & Slide Mix) [Additive]"
INDEX 01 23:18:10

TRACK 06 AUDIO
TITLE "Andreas Kauffelt - Bitcrusher [Aural Satisfaction Germany]"
INDEX 01 32:31:16

TRACK 07 AUDIO
TITLE "Way Out West - The Fall (Bedrock Mix) [Pioneer]"
INDEX 01 38:56:19

TRACK 08 AUDIO
TITLE "Groova - Unselfconscious (Luzon Remix) [Music Now]"
INDEX 01 50:39:55

Deep Dish tracklist
John Digweed - Kiss 100 - 2000-09-09 - Deep Dish - Live at Bedrock - Part 02

01. Autokat - Gimme The Beat
02. Night On Earth - Fernlicht
03. Audiomontage - Fly Baby
04. PQM feat. Circa - Flying Song (Marcus Shultz Mix)
05. Weekend World - Outsider
06. Orinoko - Island (Alt Mix)
07. Weekend World - Sessions 2
08. Oko Tek - Luminous (Original Mix)

Deep Dish cuesheet
TITLE "John Digweed - Kiss 100 - 2000-09-09 - Deep Dish - Live at Bedrock - Part 02"
FILE "John Digweed - Kiss 100 - 2000-09-09 - Deep Dish - Live at Bedrock - Part 02.mp3" MP3

TRACK 01 AUDIO
TITLE "Autokat - Gimme The Beat"
INDEX 01 00:00:00

TRACK 02 AUDIO
TITLE "Night On Earth - Fernlicht"
INDEX 01 08:16:58

TRACK 03 AUDIO
TITLE "Audiomontage - Fly Baby"
INDEX 01 14:49:01

TRACK 04 AUDIO
TITLE "PQM feat. Circa - Flying Song (Marcus Shultz Mix)"
INDEX 01 22:17:26

TRACK 05 AUDIO
TITLE "Weekend World - Outsider"
INDEX 01 30:41:51

TRACK 06 AUDIO
TITLE "Orinoko - Island (Alt Mix)"
INDEX 01 36:56:23

TRACK 07 AUDIO
TITLE "Weekend World - Sessions 2"
INDEX 01 44:09:04

TRACK 08 AUDIO
TITLE "Oko Tek - Luminous (Original Mix)"
INDEX 01 51:29:21

thanks the sun and the sea for tracklists and cuesheets