PDA

View Full Version : February 5th, 2006 - John Digweed + Hybrid



skahound
February 5, 2006, 11:05:30 AM
John Digweed Tracklist:
1. Suicide Sports Club - I Don't Know (Soul Mekanik Mix)
2. Bruno Pronsato - Open Your Eyes [Philpot]
3. Sleeper Thief - Freefall [64 Records]
4. Jussi Pekka - Dead Serious [Frozen North Recordings]
5. LocoDice - Carthago [Cocoon Recordings]
6. D2 feat. Dan Diamond - Therapy (Peace Division Remix)
7. Artist Unknown - Pimp My Bitch [Back On Records]
8. Afrilounge - Soaring [Connaisseur Recordings]
9. Lazy Fat People - Dark Water [Border Community]
10.Milton Jackson - 1998 [Tronicsole]

[b]John Digweed Cuesheet:
PERFORMER "John Digweed"
TITLE "Kiss 100 Mix (05.02.2006)"
FILE "Kiss 100 Mix - 2006-02-05 - John Digweed.mp3" MP3
TRACK 01 AUDIO
INDEX 01 00:00:00
TRACK 02 AUDIO
INDEX 01 06:19:00
TRACK 03 AUDIO
INDEX 01 14:29:00
TRACK 04 AUDIO
INDEX 01 18:25:00
TRACK 05 AUDIO
INDEX 01 26:25:00
TRACK 06 AUDIO
INDEX 01 33:48:00
TRACK 07 AUDIO
INDEX 01 37:08:00
TRACK 08 AUDIO
INDEX 01 43:42:00
TRACK 09 AUDIO
INDEX 01 47:53:00
TRACK 10 AUDIO
INDEX 01 53:19:00

Hybrid Tracklist:
1. Greenwood Ireland & Rizzo - Peaceful Journey (Standard Music Library)
2. Blake Jarrell - Okoboji (His Boy Elroy Remix) (Proton Music)
3. Lostep - Villan (Global Underground)
4. Ills - Feed My Addiction (Future Funk Squad Remix) (Distinctive)
5. Lostep - Little Peking (Global Underground)
6. Chris Lake - Release 1 (CD-R)
7. Vector 13 - Ferara (CD-R)
8. Opencloud - Time Stand Still (Proton Music)
9. Planet Funk - Everyday feat John Graham (Hybrid's 1150 Remix)
10. Harry Gregson Williams - Evacuating London (Hybrid's Hiding In The Wardrobe Mix)

Hybrid Cuesheet:
PERFORMER "Hybrid"
TITLE "Kiss 100 Mix (05.02.2006)"
FILE "Kiss 100 Mix - 2006-02-05 - Hybrid.mp3" MP3
TRACK 01 AUDIO
INDEX 01 00:00:00
TRACK 02 AUDIO
INDEX 01 07:34:00
TRACK 03 AUDIO
INDEX 01 15:46:00
TRACK 04 AUDIO
INDEX 01 22:09:00
TRACK 05 AUDIO
INDEX 01 28:38:00
TRACK 06 AUDIO
INDEX 01 33:54:00
TRACK 07 AUDIO
INDEX 01 45:42:00
TRACK 08 AUDIO
INDEX 01 54:09:00

Thanks to Lrn, herre & nomeda for JD tracklist & cuesheet
Thanks to The One for Hybrid tracklist
Thanks to herre for Hybrid cuesheet

PM skahound with tracklists and cuesheets