PDA

View Full Version : September 22th 2000, John Digweed + Steve Lawler



arielus
August 8, 2004, 01:30:13 PM
John Digweed tracklist

01. Kevin Aviance - Alive (Creamer & K Mix)
02. Siren - The Phat Lip EP (Miles Ahead) [Weekend World]
03. Echomen - Orient [End Recordings]
04. Pete Heller & Terry Farley - Deep Sensation (Peace Division Mix) [Junior]
05. Second Hand Satellites - Orbit 1.1 [Hallucination]
06. Samnerlic - Crazed Cello [Silver Pearl]
07. Teimoso feat. Kelly Preston - Ridin [Hooj]
08. Magic Alec - Beautiful Thing [Zone]

John Digweed cuesheet

TITLE "John Digweed - Kiss 100 - 2000-09-22.mp3"
FILE "John Digweed - Kiss 100 - 2000-09-22.mp3" MP3

TRACK 01 AUDIO
TITLE "Kevin Aviance - Alive (Creamer & K Mix)"
INDEX 01 00:00:00

TRACK 02 AUDIO
TITLE "Siren - The Phat Lip EP (Miles Ahead) [Weekend World]"
INDEX 01 09:00:24

TRACK 03 AUDIO
TITLE "Echomen - Orient [End Recordings]"
INDEX 01 14:42:04

TRACK 04 AUDIO
TITLE "Pete Heller & Terry Farley - Deep Sensation (Peace Division Mix) [Junior]"
INDEX 01 19:52:14

TRACK 05 AUDIO
TITLE "Second Hand Satellites - Orbit 1.1 [Hallucination]"
INDEX 01 28:15:12

TRACK 06 AUDIO
TITLE "Samnerlic - Crazed Cello [Silver Pearl]"
INDEX 01 32:16:26

TRACK 07 AUDIO
TITLE "Teimoso feat. Kelly Preston - Ridin [Hooj]"
INDEX 01 35:25:33

TRACK 08 AUDIO
TITLE "Magic Alec - Beautiful Thing [Zone]"
INDEX 01 44:51:25

TRACK 09 AUDIO
TITLE "Jurgen Dreissen - Tenshi [Maelstrom Records]"
INDEX 01 52:03:48

Steve Lawler tracklist

01. Lexicon Avenue - Midnight On West 27th Street [Forensic]
02. The Path feat. Marcel - Praying (Tom Middleton Mix) [Junior]
03. Datar - B [Hooj Chaos]
04. ID - ID
05. Futureshock - The Question [Fuju]
06. Madonna - Music (Deep Dish Dot.Com Mix) [Maverick]
07. Frisko Boy - Starbuster [Zazoo]
08. Praha - Mojito [Player 1]
09. Cevin Fisher - Love You Some More (Steve Lawler Mix) [Subversive]

Steve Lawler cuesheet

TITLE "John Digweed - Kiss 100 - 2000-09-22 - Steve Lawler"
FILE "John Digweed - Kiss 100 - 2000-09-22 - Steve Lawler.mp3" MP3

TRACK 01 AUDIO
TITLE "Lexicon Avenue - Midnight On West 27th Street [Forensic]"
INDEX 01 00:00:00

TRACK 02 AUDIO
TITLE "The Path feat. Marcel - Praying (Tom Middleton Mix) [Junior]"
INDEX 01 07:39:41

TRACK 03 AUDIO
TITLE "Datar - B [Hooj Chaos]"
INDEX 01 15:20:25

TRACK 04 AUDIO
TITLE "ID - ID"
INDEX 01 22:27:20

TRACK 05 AUDIO
TITLE "Futureshock - The Question [Fuju]"
INDEX 01 28:43:24

TRACK 06 AUDIO
TITLE "Madonna - Music (Deep Dish Dot.Com Mix) [Maverick]"
INDEX 01 36:40:20

TRACK 07 AUDIO
TITLE "Frisko Boy - Starbuster [Zazoo]"
INDEX 01 46:59:20

TRACK 08 AUDIO
TITLE "Praha - Mojito [Player 1]"
INDEX 01 52:40:14

TRACK 09 AUDIO
TITLE "Cevin Fisher - Love You Some More (Steve Lawler Mix) [Subversive]"
INDEX 01 57:32:54

thanks the sun and the sea for tracklists and cuesheets