PDA

View Full Version : September 29th, 2000 John Digweed Live at Code, Japan



arielus
August 8, 2004, 01:36:45 PM
Part 1 tracklist

01. Brothers Love Dubs - 1-800 Ming (Rui Da Silva Mix) [Decode Records]
02. Teimoso feat. Kelly Preston - Ridin [Hooj]
03. Steve Lawler - Rise In (16B Mix)
04. Base Twelve - Deep (Saeed & Palash Mix)
05. Luzon - The Baguio Track (Saeed & Palash Mix)
06. Way Out West - The Fall (Bedrock Mix) [Pioneer]
07. Halo Varga - Future! [Hooj Chaos]
08. Moonface - Children Of The Sun [Bedrock]


[B]Part 1 cuesheet

TITLE "John Digweed - Kiss 100 - 2000-09-29 - Live at Code, Japan - Part 01"
FILE "John Digweed - Kiss 100 - 2000-09-29 - Live at Code, Japan - Part 01.mp3" MP3

TRACK 01 AUDIO
TITLE "Brothers Love Dubs - 1-800 Ming (Rui Da Silva Mix) [Decode Records]"
INDEX 01 00:00:00

TRACK 02 AUDIO
TITLE "Teimoso feat. Kelly Preston - Ridin [Hooj]"
INDEX 01 12:05:52

TRACK 03 AUDIO
TITLE "Steve Lawler - Rise In (16B Mix) "
INDEX 01 18:58:11

TRACK 04 AUDIO
TITLE "Base Twelve - Deep (Saeed & Palash Mix)"
INDEX 01 25:44:21

TRACK 05 AUDIO
TITLE "Luzon - The Baguio Track (Saeed & Palash Mix)"
INDEX 01 31:24:37

TRACK 06 AUDIO
TITLE "Way Out West - The Fall (Bedrock Mix) [Pioneer]"
INDEX 01 37:43:18

TRACK 07 AUDIO
TITLE "Halo Varga - Future! [Hooj Chaos]"
INDEX 01 48:58:08

TRACK 08 AUDIO
TITLE "Moonface - Children Of The Sun [Bedrock]"
INDEX 01 54:07:10

[B]Part 2 tracklist

01. Saints & Sinners - Pushin' Too Hard
02. Futureshock - Sparc [Fuju]
03. Breeder - Carnival XIII
04. Mystic Friends - Night Creatures [Tripomatic]
05. Frank Brook - Nightwalker [Underworld Recordings]
06. Mocean Worker - Intothinair (Selway Remix) [Palm Pictures]
07. Groover - Unselfconscious (Luzon Mix) [Music Now]

[B]Part 2 cuesheet

TITLE "John Digweed - Kiss 100 - 2000-09-29 - Live at Code, Japan - Part 02"
FILE "John Digweed - Kiss 100 - 2000-09-29 - Live at Code, Japan - Part 02.mp3" MP3

TRACK 01 AUDIO
TITLE "Saints & Sinners - Pushin' Too Hard "
INDEX 01 00:00:00

TRACK 02 AUDIO
TITLE "Futureshock - Sparc [Fuju]"
INDEX 01 03:23:18

TRACK 03 AUDIO
TITLE "Breeder - Carnival XIII"
INDEX 01 09:42:35

TRACK 04 AUDIO
TITLE "Mystic Friends - Night Creatures [Tripomatic]"
INDEX 01 16:19:25

TRACK 05 AUDIO
TITLE "ID - ID"
INDEX 01 20:40:32

TRACK 06 AUDIO
TITLE "Moroccan Worker - Into The Sun (Smith & Selway Mix)"
INDEX 01 30:56:37

TRACK 07 AUDIO
TITLE "Groover - Unselfconscious (Luzon Mix) [Music Now]"
INDEX 01 41:23:36

[B]thanks the sun and the sea for tracklists and cuesheets