PDA

View Full Version : October 27th, 2000 John Digweed + Cass



arielus
August 8, 2004, 01:49:24 PM
John Digweed tracklist

01. Tijuana - Groove Is In The Air (Moonface Mix)
02. Towa Van - Phase 1
03. Grayson Shipley - Lucid (Swain & Snell Mix)
04. Weekend World - The Word (Dub Mix)
05. Echomen - Through To You
06. Graeme L - Big Bang
07. Jamez pres. Tatoine - Music (Evolution Mix)
08. Futureshock - The Question

John Digweed cuesheet

TITLE "John Digweed - Kiss 100 - 2000-10-28"
FILE "John Digweed - Kiss 100 - 2000-10-28.mp3" MP3

TRACK 01 AUDIO
TITLE "Tijuana - Groove Is In The Air (Moonface Mix)"
INDEX 01 00:00:00

TRACK 02 AUDIO
TITLE "Towa Van - Phase 1"
INDEX 01 10:09:18

TRACK 03 AUDIO
TITLE "Grayson Shipley - Lucid (Swain & Snell Mix)"
INDEX 01 16:47:44

TRACK 04 AUDIO
TITLE "Weekend World - The Word (Dub Mix)"
INDEX 01 24:08:16

TRACK 05 AUDIO
TITLE "Echomen - Through To You"
INDEX 01 28:59:51

TRACK 06 AUDIO
TITLE "Graeme L - Big Bang"
INDEX 01 35:56:38

TRACK 07 AUDIO
TITLE "Jamez pres. Tatoine - Music (Evolution Mix)"
INDEX 01 43:58:21

TRACK 08 AUDIO
TITLE "Futureshock - The Question"
INDEX 01 53:10:14

Guest tracklist

01. Cass - Cerebral Noodles [Fire]
02. Ben Shaw feat. Adele Holness - So Strong (Sander Kleinenberg Mix) [Fire]
03. Jimmy Can M & Young American Primitive - Forget Time (Dirty Water Dub)
04. PMT - Gyromancer (Breaks Mix) [Acetate LTD]
05. David Gray - Please Forgive Me (Orbital Mix)
06. ID - ID
07. ID - ID
08. ID - ID

Guest cuesheet

TITLE "John Digweed - Kiss 100 - 2000-10-27 - Cass"
FILE "John Digweed - Kiss 100 - 2000-10-27 - Cass.mp3" MP3

TRACK 01 AUDIO
TITLE "Cass - Cerebral Noodles [Fire]"
INDEX 01 00:00:00

TRACK 02 AUDIO
TITLE "Ben Shaw feat. Adele Holness - So Strong (Sander Kleinenberg Mix) [Fire]"
INDEX 01 07:14:06

TRACK 03 AUDIO
TITLE "Jimmy Can M & Young American Primitive - Forget Time (Dirty Water Dub)"
INDEX 01 16:42:57

TRACK 04 AUDIO
TITLE "PMT - Gyromancer (Breaks Mix) [Acetate LTD]"
INDEX 01 24:06:39

TRACK 05 AUDIO
TITLE "David Gray - Please Forgive Me (Orbital Mix)"
INDEX 01 31:04:52

TRACK 06 AUDIO
TITLE "ID - ID"
INDEX 01 37:28:31

TRACK 07 AUDIO
TITLE "ID - ID"
INDEX 01 43:23:49

TRACK 08 AUDIO
TITLE "ID - ID"
INDEX 01 49:33:43

TRACK 09 AUDIO
TITLE "Aria - One (Voyager Mix) [Fire]"
INDEX 01 53:41:40

thanks the sun and the sea for tracklists and cuesheets