PDA

View Full Version : December 1st, 2000 John Digweed + Jerry Bonham



arielus
August 8, 2004, 02:07:18 PM
John Digweed tracklist

01. Altocamet - Pasion Descalza (Syawzak Vocal Mix 2) [Yoshitoshi]
02. ID - Underground Atomic
03. The Path - Praying (Tom Middleton Mix) [Junior]
04. Rui Da Silva - Touch Me (Peace Division Mix) [Kismet]
05. Autokat - Gimme The Beat (Autokat's Marine Mix) [Yoshitoshi]
06. Pete Heller pres. Stylus Trouble - Sputnik [Junior Boys Own]
07. ID - ID

John Digweed cuesheet

TITLE "John Digweed - Kiss 100 - 2000-12-01"
FILE "John Digweed - Kiss 100 - 2000-12-01.mp3" MP3

TRACK 01 AUDIO
TITLE "Altocamet - Pasion Descalza (Syawzak Vocal Mix 2) [Yoshitoshi]"
INDEX 01 00:00:00

TRACK 02 AUDIO
TITLE "ID - Underground Atomic"
INDEX 01 13:17:34

TRACK 03 AUDIO
TITLE "The Path - Praying (Tom Middleton Mix) [Junior]"
INDEX 01 21:14:39

TRACK 04 AUDIO
TITLE "Rui Da Silva - Touch Me (Peace Division Mix) [Kismet]"
INDEX 01 29:11:48

TRACK 05 AUDIO
TITLE "ID - ID"
INDEX 01 34:40:38

TRACK 06 AUDIO
TITLE "Pete Heller pres. Stylus Trouble - Sputnik [Junior Boys Own]"
INDEX 01 41:44:39

TRACK 07 AUDIO
TITLE "ID - ID"
INDEX 01 48:55:37

Guest tracklist

01. Two Sinners - Patterns [S2S]
02. Brother Brown - Brotha Brotha [Yoshitoshi]
03. Second Hand Satellites - Orbit 1.1 [Hallucination]
04. Seltav - SPQR [CSM]
05. Lypid - The Signs Alive (DJ Three & Q-Burns Mix) [Statra]
06. Animated - Wired [Deviant]
07. Night On Earth - Fernlicht [Ongaku]
08. JSJ - Deep Love 9 [Renaissance]
09. Jerry Bonham - Erendira
10. Resistance D - You Were There [Planet Vision]

[B]Guest cuesheet

TITLE "John Digweed - Kiss 100 - 2000-12-01 - Jerry Bonham"
FILE "John Digweed - Kiss 100 - 2000-12-01 - Jerry Bonham.mp3" MP3

TRACK 01 AUDIO
TITLE "Two Sinners - Patterns [S2S]"
INDEX 01 00:00:00

TRACK 02 AUDIO
TITLE "Brother Brown - Brotha Brotha [Yoshitoshi]"
INDEX 01 05:02:35

TRACK 03 AUDIO
TITLE "Second Hand Satellites - Orbit 1.1 [Hallucination]"
INDEX 01 08:21:37

TRACK 04 AUDIO
TITLE "Seltav - SPQR [CSM]"
INDEX 01 10:04:27

TRACK 05 AUDIO
TITLE "Lypid - The Signs Alive (DJ Three & Q-Burns Mix) [Statra]"
INDEX 01 18:08:19

TRACK 06 AUDIO
TITLE "Animated - Wired [Deviant]"
INDEX 01 22:10:55

TRACK 07 AUDIO
TITLE "Night On Earth - Fernlicht [Ongaku]"
INDEX 01 29:27:03

TRACK 08 AUDIO
TITLE "JSJ - Deep Love 9 [Renaissance]"
INDEX 01 33:15:26

TRACK 09 AUDIO
TITLE "Jerry Bonham - Erendira "
INDEX 01 39:34:33

TRACK 10 AUDIO
TITLE "Resistance D - You Were There [Planet Vision]"
INDEX 01 46:50:17

[B]thanks the sun and the sea for tracklists and cuesheets