PDA

View Full Version : December 8th, 2000 John Digweed + Steve Lawler



arielus
August 8, 2004, 02:09:45 PM
John Digweed tracklist

01. ID - Groove
02. Tigerhook Corporation - Welcome To The 21st Century
03. Motherload - Sin-nuh [Whoop! Records]
04. 16B - Escape
05. Traffik - ID (Remix)
06. Vic, Twenty, & Sinclair - The Keeter (Jamez Remix) {Future Groove]
07. Pinkalem & Atomic Heat - Electronica (Van Bellen Remix) [Platypus]
08. Sam Assiciates - Music (Circulatin Remix)

John Digweed cuesheet

TITLE "John Digweed - Kiss 100 - 2000-12-08"
FILE "John Digweed - Kiss 100 - 2000-12-08.mp3" MP3

TRACK 01 AUDIO
TITLE "ID - Groove"
INDEX 01 00:00:00

TRACK 02 AUDIO
TITLE "Tigerhook Corporation - Welcome To The 21st Century"
INDEX 01 09:46:50

TRACK 03 AUDIO
TITLE "Sinner - Motherlode EP"
INDEX 01 19:29:24

TRACK 04 AUDIO
TITLE "16B - Escape"
INDEX 01 25:37:15

TRACK 05 AUDIO
TITLE "Traffik - ID (Remix)"
INDEX 01 31:56:27

TRACK 06 AUDIO
TITLE "Vic, Twenty, & Sinclair - The Keeter (Jamez Remix) {Future Groove]"
INDEX 01 40:50:04

TRACK 07 AUDIO
TITLE "Pinkalem & Atomic Heat - Electronica (Van Bellen Remix) [Platypus]"
INDEX 01 49:14:11

TRACK 08 AUDIO
TITLE "Sam Assiciates - Music (Circulatin Remix)"
INDEX 01 58:08:39

Steve Lawler tracklist

01. Lexicon Avenue - Midnight On W. 27th Street [Forensic]
02. The Path - Praying (Tom Middleton Mix) [JUnior]
03. Datar - B [Hooj Choons]
04. ID - ID
05. Futureshock - The Question [Fuju]
06. Madonna - Music (Deep Dish Mix) [Warner Bros.]
07. ID - ID
08. ID - ID
09. Cevin Fisher - Love You Some More (Steve Lawler Mix) [Subversive]

Steve Lawler cuesheet

TITLE "John Digweed - Kiss 100 - 2000-12-08 - Steve Lawler"
FILE "John Digweed - Kiss 100 - 2000-12-08 - Steve Lawler.mp3" MP3

TRACK 01 AUDIO
TITLE "Lexicon Avenue - Midnight On W. 27th Street [Forensic]"
INDEX 01 00:00:00



(my rip of this show didn't have the Lexicon Ave. track, instead, it started with track by The Path. If you have a proper of this set, please let me know, so i can re-do the cue for this set. Thank You.)



TRACK 01 AUDIO
TITLE "The Path - Praying (Tom Middleton Mix) [JUnior]"
INDEX 01 00:00:00

TRACK 02 AUDIO
TITLE "Datar - B [Hooj Choons]"
INDEX 01 05:03:30

TRACK 03 AUDIO
TITLE "ID - ID"
INDEX 01 11:52:12

TRACK 04 AUDIO
TITLE "Futureshock - The Question [Fuju]"
INDEX 01 18:10:21

TRACK 05 AUDIO
TITLE "Madonna - Music (Deep Dish Mix) [Warner Bros.]"
INDEX 01 26:20:47

TRACK 06 AUDIO
TITLE "ID - ID"
INDEX 01 36:06:36

TRACK 07 AUDIO
TITLE "ID - ID"
INDEX 01 42:21:11

TRACK 08 AUDIO
TITLE "Cevin Fisher - Love You Some More (Steve Lawler Mix) [Subversive]"
INDEX 01 47:41:04

thanks the sun and the sea for tracklists and cuesheets