PDA

View Full Version : December 29th, 2000 John Digweed + Sasha



arielus
August 8, 2004, 02:14:49 PM
John Digweed tracklist

01. The Path - Praying (Tom Middleton Mix) [Junior]
02. Brent Laurence feat. Maureen Parker - Ain't Gonna [Soulgroove Us]
03. Foremost Poets - Moonraker
04. Smart Alecs - China Ninja (Underground Sound of Lisbon Mix) [Euks House]
05. Bedrock - Beautiful Strange (Rui Da Silva Mix)
06. Weekend - World (Part One) [Weekend World]
07. Ortus - Resolve [Airgap]
08. ID - Traffic (H-Bomb Mix)

[b]John Digweed cuesheet

TITLE "John Digweed - Kiss 100 - 2000-12-30 - Live at Fabric, London - Part 02"
FILE "John Digweed - Kiss 100 - 2000-12-30 - Live at Fabric, London - Part 02.mp3" MP3

TRACK 01 AUDIO
TITLE "The Path - Praying (Tom Middleton Mix) [Junior]"
INDEX 01 00:00:00

TRACK 02 AUDIO
TITLE "Brent Laurence feat. Maureen Parker - Ain't Gonna [Soulgroove Us]"
INDEX 01 07:45:34

TRACK 03 AUDIO
TITLE "Foremost Poets - Moonraker"
INDEX 01 13:22:06

TRACK 04 AUDIO
TITLE "Smart Alecs - China Ninja (Underground Sound of Lisbon Mix) [Euks House]"
INDEX 01 21:11:25

TRACK 05 AUDIO
TITLE "Bedrock - Beautiful Strange (Rui Da Silva Mix) "
INDEX 01 27:00:25

TRACK 06 AUDIO
TITLE "Weekend - World (Part One) [Weekend World]"
INDEX 01 40:31:39

TRACK 07 AUDIO
TITLE "Ortus - Resolve [Airgap]"
INDEX 01 45:55:43

TRACK 08 AUDIO
TITLE "ID - Traffic (H-Bomb Mix)"
INDEX 01 52:25:13

[b]Guest tracklist

01. Solid Sessions - Fatal Morgana
02. Azzido Da Bass - Dooms Night (Pascal FEOS Mix) [Club Tools]
03. Mark Lowndes - Sunrise
04. Elite Force - Krushyn [Fused & Bruised]
05. Sasha & Emerson - Scorchio (Sander Kleinenberg Mix)
06. System F feat. Armin Van Buuren - Exhale (Sander Kleinenberg Mix) [Tsunami]
07. Junkie XL - Breezer
08. Futureshock - Sparc [Fuju]
09, Bedrock - Heaven Scent (POB's Seismix) [Bedrock]


[b]Guest cuesheet

TITLE "John Digweed - Kiss 100 - 2000-12-30 - Sasha.mp3"
FILE "John Digweed - Kiss 100 - 2000-12-30 - Sasha.mp3" MP3

TRACK 01 AUDIO
TITLE "Solid Sessions - Fatal Morgana"
INDEX 01 00:00:00

TRACK 02 AUDIO
TITLE "Azzido Da Bass - Dooms Night (Pascal FEOS Mix) [Club Tools]"
INDEX 01 06:36:49

TRACK 03 AUDIO
TITLE "Mark Lowndes - Sunrise"
INDEX 01 12:03:01

TRACK 04 AUDIO
TITLE "Elite Force - Krushyn [Fused & Bruised]"
INDEX 01 18:34:28

TRACK 05 AUDIO
TITLE "Sasha & Emerson - Scorchio (Sander Kleinenberg Mix) "
INDEX 01 24:20:10

TRACK 06 AUDIO
TITLE "System F feat. Armin Van Buuren - Exhale (Sander Kleinenberg Mix) [Tsunami]"
INDEX 01 32:11:36

TRACK 07 AUDIO
TITLE "Junkie XL - Breezer"
INDEX 01 40:40:46

TRACK 08 AUDIO
TITLE "Futureshock - Sparc [Fuju]"
INDEX 01 47:17:00

TRACK 09 AUDIO
TITLE "Bedrock - Heaven Scent (POB's Seismix) [Bedrock]"
INDEX 01 53:27:16

[b]thanks the sun and the sea for tracklists and cuesheets