PDA

View Full Version : February 12th, 2006 - John Digweed + Chris Fortier



skahound
February 12, 2006, 03:58:49 PM
John Digweed Tracklist:
Goldfrapp - Ride A White Horse (Ewan Pearson Vocal Parts 1 + 2) [Mute Records]
Break 3000 & Adam Kroll - Get Down [Players Paradise]
Duplex 100 - Well Hung (Martinez Kaos Treatment) [3rd Floor]
Pig & Dan - Mirco Kitchen [Cocoon Recordings]
Sleeper Thief - Freeride [64 Records]
Philo - Power Plant [Avalanche Records]
Antix - Little Honey (Fitalic Remix) [Iboga Records]

John Digweed Cuesheet:
PERFORMER "John Digweed"
TITLE "Kiss 100 Mix (12.02.2006)"
FILE "Kiss 100 Mix - 2006-02-12 - John Digweed.mp3" MP3
TRACK 01 AUDIO
INDEX 01 00:00:00
TRACK 02 AUDIO
INDEX 01 16:04:00
TRACK 03 AUDIO
INDEX 01 20:52:00
TRACK 04 AUDIO
INDEX 01 25:11:00
TRACK 05 AUDIO
INDEX 01 31:29:00
TRACK 06 AUDIO
INDEX 01 38:10:00
TRACK 07 AUDIO
INDEX 01 45:33:00


Chris Fortier Tracklist:
Miss Bliss - You're The Best Thing (40oz Edit #1)
Unai - You And I (RB Remix)
Black Dice - Smiling Off (Luomo Remix)
Mish Mash - Speechless (40oz’s Dub 3AM Re-edit)
Code E - Analysis And Evaluation
Kraftwerk - Aerodynamik (40oz Edits FK Dub)
Gustavo Lamas - Entre
Carl Craig - Darkness (Radio Slave Edit)
Speedy J & George Issakidis - Looks Something Like You
Luke Slater - All Exhale (FC Kahuna Remix)

Chris Fortier Cuesheet:


Thanks to herre & houseystuff for JD tracklist
Thanks to herre for JD cuesheet
Thanks to Jenks, SolarB, and herre for Chris Fortier tracklist

PM skahound with tracklists and cuesheets