PDA

View Full Version : April 30th, 2006 - John Digweed + Jody Wisternoff



skahound
April 30, 2006, 11:58:56 PM
John Digweed Tracklist:
Lephteeb - So Far Back (Phonique Remix)
Fishead - Inescapable [Saw Recordings]
Satoshi Tomiie - Glow
LK-Pro - Makavelli [Mutekki]
Alex Dolby - Psyko Garden (RJ Project Remix) [Airtight]
Swain & Collingwood - Never Be The Same (Globe & Swain Remix) [GU Music]
Depeche Mode - John The Revelator (Tiefschwarz Remix) [Mute]
Depeche Mode - John The Revelator ( Remix) [Mute]

[b]John Digweed Cuesheet:
PERFORMER "John Digweed"
TITLE "Kiss 100 Mix (30.04.2006)"
FILE "Kiss 100 Mix - 2006-04-30 - John Digweed.mp3" MP3
TRACK 01 AUDIO
INDEX 01 00:00:00
TRACK 02 AUDIO
INDEX 01 08:03:00
TRACK 03 AUDIO
INDEX 01 15:34:00
TRACK 04 AUDIO
INDEX 01 23:43:00
TRACK 05 AUDIO
INDEX 01 29:43:00
TRACK 06 AUDIO
INDEX 01 36:01:00
TRACK 07 AUDIO
INDEX 01 42:50:00
TRACK 08 AUDIO
INDEX 01 49:53:00

Jody Wisternoff Tracklist:
Shena - Electrosexual (Michael Gray Mix) [No Prisoners Records]
Mark Flash - Soul Power (Mike Monday Avec Piano Mix) [Hi-Phen]
Tiger Stripes - Serenity [Ibadan]
Paul Woolford - 313 [NRK]
Digitalism - Zdarlight (Moonlight Remix) [Kitsune Music]
Sebastian Ingrosso - Buy Now, For Sale (Gianluca Motta Remix)
Gabriel Ananda - Suessholz (Brockseiper Remix) [Treibstoff Recordings]
Gabriel & Dresden - Eleven (US Tour Mix)
Subsky - Come And Get Me [Red Flag Collective]
Julien Jabre - Swimming Places (Jerome Sydenham Mix) [Defected]
Trashfunk -Sleep Talkin (Edit) [Alphabet City]
N Joi - Anthem (Instrumental Remix) [Alternative Route]
Jens Gad - The Seeress Prophecy (Micah Remix)
Jody Wisternoff - Cold Drink, Hot Girl [Distinctive]

Jody Wisternoff Cuesheet:

Thanks to herre for JD tracklist and cuesheet
Thanks to herre & houseystuff for Jody Wisternoff tracklist

PM skahound with additions and/or changes to tracklists and cuesheets.