PDA

View Full Version : June 4th, 2006 - John Digweed + Terry Grant



skahound
June 4, 2006, 09:19:07 AM
John Digweed Tracklist:
Stephan Bodzin Vs. Marc Romboy - Ferdinand [Systematic]
Pastaboys - Eightyone [Manocalda]
Booka Shade - In White Rooms (Neo Mix) [Get Physical Music]
John Digweed - Warung Beach (Kiki Remix)
Aqeel72 - Up In The Sky (Fernando Guilon Acid Mix) [Sindicato]
Zoo Brazil - Drink Me [Harthouse]
Smash TV - Air
Chris cargo - Warning [Slide Recordings]
Cagedbaby - Hello There (Radio Slave Remix) [Southern Fried Records]

[B]John Digweed Cuesheet:
PERFORMER "John Digweed"
TITLE "Kiss 100 Mix (04.06.2006)"
FILE "Kiss 100 Mix - 2006-06-04 - John Digweed.mp3" MP3
TRACK 01 AUDIO
INDEX 01 00:00:00
TRACK 02 AUDIO
INDEX 01 06:47:00
TRACK 03 AUDIO
INDEX 01 14:57:00
TRACK 04 AUDIO
INDEX 01 20:30:00
TRACK 05 AUDIO
INDEX 01 27:07:00
TRACK 06 AUDIO
INDEX 01 30:21:00
TRACK 07 AUDIO
INDEX 01 36:38:00
TRACK 08 AUDIO
INDEX 01 43:57:00
TRACK 09 AUDIO
INDEX 01 50:16:00

[B]Terry Grant Tracklist:
1. Paul Woolford - 313 (part1) [NRK]
2. Akabu - Phuture Bound (Ame Remix) [Z]
3. Tigerskin - Neontrance [Dirt Crew]
4. Dale Anderson & Anil Chawla - Makes Me Feel [Saved]
5. Chab - Lover (Satoshi Tomiie 3D Vocal) [Saw]
6. Astro - Awake Or Dreaming (Martijn Ten Velden Dub) [Phonetic]
7. Kirk Degiorgio - Starwaves (Spirit Catcher Remix) [Freerange]
8. Deepgroove - Drum Honey (Trophey Twins Mix) [Pop Pop]
9. Jody Wisternoff - Cold Drink, Hot Girl [Distinctive]

Terry Grant Cuesheet:

Thanks to Jozeg from Tribalmixes for recording the mix

Thanks to herre for JD tracklist and cuesheet
Thanks to herre for Terry Grant tracklist

PM skahound with additions and/or changes to tracklists and cuesheets.