PDA

View Full Version : Jul 19, 2002 John Digweed + G-PAL (TL & Cue)*



gr8pumpkin
June 16, 2004, 07:30:12 PM
John Digweed- Tracklisting

01. Amani vs Teapot - Calling On My Roots
02. Coco Da Silva - This Time You're Mine [Kismet]
03. David Alvarado - Polygons [Ovum]
04. Tom Mangan - Chutney
05. Love Powder People - Fierceness [Junior]
06. Dirty South - Heart Shape That Feeling
07. Sidekick - Tricks
08. Unknown - Unknown

[b]John Digweed- Cue Sheet

FILE "Kiss100- (Jul 19 2002)- Part1- John Digweed- Tronik.mp3" MP3
TRACK 01 AUDIO
TITLE "Calling on my roots"
PERFORMER "Amani vs Teapot"
INDEX 01 00:00:00
TRACK 02 AUDIO
TITLE "This time you're mine [Kismet]"
PERFORMER "Coco Da Silva"
INDEX 01 09:59:00
TRACK 03 AUDIO
TITLE "Polygons [Ovum]"
PERFORMER "David Alvarado"
INDEX 01 17:30:00
TRACK 04 AUDIO
TITLE "Chutney "
PERFORMER "Tom Mangan"
INDEX 01 23:56:00
TRACK 05 AUDIO
TITLE "Fierceness [Junior]"
PERFORMER "Love Powder People"
INDEX 01 31:41:20
TRACK 06 AUDIO
TITLE "Heart shape that feeling"
PERFORMER "Dirty South"
INDEX 01 39:17:15
TRACK 07 AUDIO
TITLE "Tricks"
PERFORMER "Sidekick"
INDEX 01 47:53:35
TRACK 08 AUDIO
TITLE "unknown"
PERFORMER "unknown"
INDEX 01 52:48:00

[b]G-PAL- Tracklisting

01. Deadbeat Society ? - Flick?s Theme (Loudeast Remix) [Future Groove CDR]
02. Morel ? - Funny Car (Pappa & Gilbey Dub) [Yoshitoshi]
03. Unknown - Deliah (Envy?s Deviation) [CDR]
04. Kevin Freeman - The Move [Room 4 Recordings]
05. Paul Rogers - Krafty [Sumsonic CDR]
06. G.Pal presents Ghos - Can you see the Lights? [Yoshitoshi]
07. MAS Collective - In My Mind [CDR]
08. Orange - Remember Me (You'll Stay In My Heart)
09. Loudeast - Sondido Profund (G.Pal?s Sweet AMX Remix) [Shinichi CDR]
10. Dakota - Frozen Time [Plastik]

[b]Thanks Arielus for the cue sheet!

-TC-
_________________
"People misunderstand dance music. They think it's something with a drum machine. But what about tango? Or salsa?" Bj?rk (Elle USA, december 1997)