PDA

View Full Version : July 30th, 2006 - John Digweed (Live)



Hos
August 1, 2006, 07:32:30 AM
John Digweed Live From Transitions At Pawn Shop, Miami, Florida, USA (Recorded 23.03.2006) Part 2

John Digweed Tracklist:

1. Francois Dubious - Blood (Original Mix) [Urban Torque]
2. Theo Parrish - Falling Up (Carl Craig Mix)
3. Jondi & Spesh - We Are Connected [Looq]
4. Switch - A Bit Patchy (Eric Prydz Remix) [Data Records]
5. ID
6. The Diogenes Club - Jaunt (Harry Peat Remix) [Urbantorque]
7. DJ Fex - Numbers & Letters [Hypnotic]
8. Terry Grant - Komputers Are The Devil
9. King Unique - To The Left (LED Remix) [Curfew]
10. Diringer - Flake Escape [Kling Klong]



[B]John Digweed Cuesheet:

PERFORMER "John Digweed"
TITLE "Kiss 100 Mix (30.07.2006)"
FILE "Kiss 100 Mix - 2006-07-30 - John Digweed, Live From Transitions At Pawn Shop, Miami, Florida, USA (Recorded 23.03.2006) Part 2.mp3" MP3
TRACK 01 AUDIO
INDEX 01 00:00:00
TRACK 02 AUDIO
INDEX 01 04:17:00
TRACK 03 AUDIO
INDEX 01 09:59:00
TRACK 04 AUDIO
INDEX 01 16:47:00
TRACK 05 AUDIO
INDEX 01 22:41:00
TRACK 06 AUDIO
INDEX 01 28:40:00
TRACK 07 AUDIO
INDEX 01 34:33:00
TRACK 08 AUDIO
INDEX 01 39:54:00
TRACK 09 AUDIO
INDEX 01 47:30:00
TRACK 10 AUDIO
INDEX 01 53:24:00


John Digweed Live From Transitions At Pawn Shop, Miami, Florida, USA (Recorded 23.03.2006) Part 3

John Digweed Tracklist:

1. Diringer - Flake Escape [Kling Klong]
2. Kupon - Zoom Out [Curfew]
3. Thomas Schumacher - Red Purple [Spiel-Zeug Schallplatten]
4. Trick and Kubic featuring Valeska - Easy (Nieskisch and Hermann mix)
5. Rocco Mundo - Roots 4 Acid
6. MANDY Vs DJ T. - Body Language (Radioslave Remix) [Get Physical Music]
7. ID
8. Alex Dolby - Smokin Mountain [Mantra Vibes]
9. Alexy Dolby - Acid Store [Mantra Vibes]
10. Black Strobe - Last Club on Earth (Arnaud Rebotini Remix) [Crosstown Rebels]


John Digweed Cuesheet:

PERFORMER "John Digweed"
TITLE "Kiss 100 Mix (30.07.2006)"
FILE "Kiss 100 Mix - 2006-07-30 - John Digweed, Live From Transitions At Pawn Shop, Miami, Florida, USA (Recorded 23.03.2006) Part 3.mp3" MP3
TRACK 01 AUDIO
INDEX 01 00:00:00
TRACK 02 AUDIO
INDEX 01 05:40:00
TRACK 03 AUDIO
INDEX 01 10:35:00
TRACK 04 AUDIO
INDEX 01 16:43:00
TRACK 05 AUDIO
INDEX 01 22:54:00
TRACK 06 AUDIO
INDEX 01 29:40:00
TRACK 07 AUDIO
INDEX 01 39:00:00
TRACK 08 AUDIO
INDEX 01 45:56:00
TRACK 09 AUDIO
INDEX 01 51:55:00


Thanks to Jozeg from Tribalmixes for recording the mix
Thanks to herre for JD tracklist and cuesheet
Thanks to Maarten for track IDs
Thanks to Genaro for further track IDs

PM skahound/hos with additions and/or changes to tracklists and cuesheets.