PDA

View Full Version : August 20th, 2006 - John Digweed + John Acquaviva



Hos
August 20, 2006, 06:27:33 PM
John Digweed Tracklist:

Gabriel Ananda - Old Cruncher [Glückskind Schallplatten]
Rekleiner - Realtime [Maschine Records]
Patrick Chardronnet - Eve By Day (Fairmont Mix) [Connaisseur Recordings]
Candy Csonka & Chrsis Delay - Faces [Unleash]
Dominik Eulberg - Björn Borkenkäfer [Traum Schallplatten]
Booka Shade - In White Rooms (Mexico Mix) [Get Physical Music]
Bournski - Headline Mad
Audiosex - G String [Sounds Good]
Johnny Ather - Evil Edna


John Digweed Cuesheet:

PERFORMER "John Digweed"
TITLE "Kiss 100 Mix (20.08.2006)"
FILE "Kiss 100 Mix - 2006-08-20 - John Digweed.mp3" MP3
TRACK 01 AUDIO
INDEX 01 00:00:00
TRACK 02 AUDIO
INDEX 01 08:16:00
TRACK 03 AUDIO
INDEX 01 14:00:00
TRACK 04 AUDIO
INDEX 01 19:01:00
TRACK 05 AUDIO
INDEX 01 25:02:00
TRACK 06 AUDIO
INDEX 01 32:06:00
TRACK 07 AUDIO
INDEX 01 38:42:00
TRACK 08 AUDIO
INDEX 01 46:12:00
TRACK 09 AUDIO
INDEX 01 51:48:00

John Acquaviva Tracklist:

01. Mason - Exceeder [Great Stuff]
02. Roger Sanchez - Lost (Ramirez Remix) [Stealth]
03. Plump Djs - Electric Disco [Finger Lickin]
04. Herbert Gronemeyer vs. Kurd Maverick - Was Dreht [White Label]
05. Ante Perry - Beach Power
06. Audiofly - Inside The Beat (Remo Mix) [Re Vox]
07. Damon Gee & Olivier Giacomotto - Walking On The Moog [Definitive]
08. Whirlpool Productions - Disco To Disco (Mike Monday Remix) [Great Stuff]
09. Yello - Oh Yeah (Bodzin & Huntemann Remix) [Universal France]
10. Ingrosso & Angello - Click [Black & White]

[B]John Acquaviva Cuesheet:

-

Thanks to Jozeg from Tribalmixes for recording the mix
Thanks to herre for tracklists and cuesheets
Thanks to herogee for track spot
Thanks to Jimmy for the guest mix tracklist

PM skahound/hos with additions and/or changes to tracklists and cuesheets.