PDA

View Full Version : October 8th, 2006 - John Digweed + King Unique



Hos
October 9, 2006, 06:38:08 PM
John Digweed Tracklist:

1. Misstress Barbara - K-10
2. Stephan Bodzin & Marc Romboy - The Alchemist [20:20 Vision]
3. Kerowack - Naf Monk (Marc Romboy Mix) [Xylophone Jones Recordings]
4. Shlomi Aber - Tel Aviv Garden [Audio Therapy]
5. Infinitize - Around Us (Rene Amesz Remix) [25 Hertz Recordings]
6. Pimp Phonk - Do You Hear Me [Manga]
7. Francois Dubois - Blood (Tom Middleton Remix) [Urbantorque]
8. Dousk - Biz 1982

[B]John Digweed Cuesheet:

PERFORMER "John Digweed"
TITLE "Kiss 100 Mix (08.10.2006)"
FILE "Kiss 100 Mix - 2006-10-08 - John Digweed.mp3" MP3
TRACK 01 AUDIO
INDEX 01 00:00:00
TRACK 02 AUDIO
INDEX 01 08:15:00
TRACK 03 AUDIO
INDEX 01 14:55:00
TRACK 04 AUDIO
INDEX 01 22:21:00
TRACK 05 AUDIO
INDEX 01 28:30:00
TRACK 06 AUDIO
INDEX 01 35:00:00
TRACK 07 AUDIO
INDEX 01 40:52:00
TRACK 08 AUDIO
INDEX 01 48:30:00

King Unique Tracklist:

1. Rekorder - Rekorder 6.1 [Rekorder]
2. Skye - What’s Wrong With Me (Phonique Remix) [Korova]
3. M?rtini Br?s. - Spoonful Of Lovin' [Poker Flat Recordings]
4. Outmode - True (Born Tricky Remix)
5. Funkwerkstatt - Automatique [Karateklub]
6. Zen-Kei - The Punisher [Great Stuff Recordings]
7. Lorraine - Heaven (Sebastien Leger Remix) [Ariola]
8. Steve Mercer - I Sleep In Sellotape (Watkins Remix) [Curfew]
9. Blind Willie Johnson - Dark Was The Night W/ Knights Of Columbos (KU Mashup)
10. Stephan Bodzin - Papillon [Herzblut]
11. Paul Kalkbrenner - Gebr?nn Gebr?nn (Alexander Kowalski Remix) [BPitch Control]
12. A:Lee - Electric Passion (Outmode Remix) [Oxyd]
13. Trentem?ller - Miss You (Sieben Remix)

[B]King Unique Cuesheet:

PERFORMER "King Unique"
TITLE "Kiss 100 Mix (08.10.2006)"
FILE "Kiss 100 Mix - 2006-10-08 - King Unique.mp3" MP3
TRACK 01 AUDIO
INDEX 01 00:00:00
TRACK 02 AUDIO
INDEX 01 06:30:00
TRACK 03 AUDIO
INDEX 01 08:05:00
TRACK 04 AUDIO
INDEX 01 13:00:00
TRACK 05 AUDIO
INDEX 01 17:48:00
TRACK 06 AUDIO
INDEX 01 20:20:00
TRACK 07 AUDIO
INDEX 01 23:50:00
TRACK 08 AUDIO
INDEX 01 27:53:00
TRACK 09 AUDIO
INDEX 01 32:27:00
TRACK 10 AUDIO
INDEX 01 39:59:00
TRACK 11 AUDIO
INDEX 01 44:48:00
TRACK 12 AUDIO
INDEX 01 51:02:00
TRACK 13 AUDIO
INDEX 01 54:45:00


Thanks to Jozeg from Tribalmixes for recording the mix
Thanks to herre, herogee and nikolic for tracklists and cuesheets

PM skahound/hos with additions and/or changes to tracklists and cuesheets.