PDA

View Full Version : October 22nd, 2006 - John Digweed + Lexicon Avenue



Hos
October 24, 2006, 06:04:19 PM
John Digweed Tracklist:

1. Minilogue - Out Of Curious (Luke Dzierzek Remix) [Silver Planet Recordings]
2. L?tzenkirchen - Ultrashift [Great Stuff Recordings]
3. Misstress Barbara - K-10
4. Cass - Weekend Work Is Never Done
5. Luke Solomon - Ghouls (Claude Vonstrokes Beats From The Grave) [REKIDS]
6. Africano - Jiganaan (Creative Primates Jiged Up Dub) [Ubanikhaya Records]
7. ID
8. Alcatraz Vs. Woolford - Erotic Love (James Zabiela's Mash Mix)
9. Artist Unknown - Damage
10. Jona - Unknown


[B]John Digweed Cuesheet:

PERFORMER "John Digweed"
TITLE "Kiss 100 Mix (22.10.2006)"
FILE "Kiss 100 Mix - 2006-10-22 - John Digweed.mp3" MP3
TRACK 01 AUDIO
INDEX 01 00:00:00
TRACK 02 AUDIO
INDEX 01 06:15:00
TRACK 03 AUDIO
INDEX 01 11:45:00
TRACK 04 AUDIO
INDEX 01 19:32:00
TRACK 05 AUDIO
INDEX 01 25:17:00
TRACK 06 AUDIO
INDEX 01 30:17:00
TRACK 07 AUDIO
INDEX 01 35:17:00
TRACK 08 AUDIO
INDEX 01 41:30:00
TRACK 09 AUDIO
INDEX 01 46:22:00
TRACK 10 AUDIO
INDEX 01 53:57:00

Lexicon Avenue Tracklist:

1. Tiger Stripes - Spirit Call
2. Spiritcatcher - Time Emulator
3. Tony Thomas - Spirit Of Ecstacy
4. Muzzaik - Dirty Dance
5. Oliver Berger - Vue
6. Wsj - Kuchbare
7. Yousef - Approach
8. Nic Fanciulli - Lucky Heather
9. Funk Agenda - Ding Dong
10. Dylan Rhymes - Coming Clean (Lexicon Avenue Remix)

Lexicon Avenue Cuesheet:




Thanks to Jozeg from Tribalmixes for recording the mix
Thanks to herre, herogee and nikolic for tracklists and cuesheets

PM skahound/hos with additions and/or changes to tracklists and cuesheets.