PDA

View Full Version : November 5th, 2006 - John Digweed + Martinez



Hos
November 6, 2006, 02:54:31 PM
John Digweed Tracklist:

01. Ripperton & She DJ Masaya - Long Distance [Num Records]
02. Ruppert Town - Siboney [Freedom Soundz]
03. Kevin Leaven - Feeling Spicy [Traum Schallplatten]
04. Kaiak - Ass (D.Lewis and Emix remix) [Zig Zag]
05. Marco Bailey & Tom Hades - Kamaki [Omega Audio Recordings]
06. Marc Vision - Gotham City [Mauritius]
07. Inkfish - Pre Screen (Nick Muir Remix) [Rapid Response]
08. S.L.A.D.L.Y - Unicorn (16Bit Lolitas Remix) [Viva Music]

John Digweed Cuesheet:

PERFORMER "John Digweed"
TITLE "Kiss 100 Mix (05.11.2006)"
FILE "Kiss_100_FM_(Nov_5,_2006)_-_John_Digweed.mp3" MP3
TRACK 01 AUDIO
INDEX 01 00:00:00
TRACK 02 AUDIO
INDEX 01 10:15:00
TRACK 03 AUDIO
INDEX 01 18:25:00
TRACK 04 AUDIO
INDEX 01 24:47:00
TRACK 05 AUDIO
INDEX 01 29:05:00
TRACK 06 AUDIO
INDEX 01 35:05:00
TRACK 07 AUDIO
INDEX 01 40:01:00
TRACK 08 AUDIO
INDEX 01 49:13:00
TRACK 09 AUDIO
INDEX 01 55:11:00

Martinez Tracklist:
01. Martin Buttrich - Programmer [Planet E]
02. Latex - The Porcupine [RebelOne]
03. ? - Atomit [S?hk? Recordings]
04. Marc Houle - Unknown [M_nus]
05. Daniel Taylor - MORD (Loco Dice Remix) [Four:Twenty Recordings]
06. Ink & Needle - Track Two
07. Plastikman - Psyke [M_nus]
08. Sleeparchive - Research
09. Guido Schneider - Re-moved [Poker Flat Recordings]
10. Guido Schneider - Bassism [Poker Flat Recordings]
11. We Are - 003 B1
12. Martinez - Echochamber [Audiomatique]
13. ? - Twin Bleeps [S?hk? Recordings]
14. Guido Schneider - Styleways [Poker Flat Recordings]
15. Mathew Jonson - Magic Thru Music [Itiswhatitis Recordings]
16. Mathew Jonson - Folding Space [Substatic]
17. Mathew Jonson - Typerope [Itiswhatitis Recordings]
18. Patrick Chardronnet - Eve By Day (Fairmont Remix) [Connisueir Recordings]
19. Crystal Fake - Weekday Trip (Martinez Triple-o Adjustment) [Out Of Orbit]

Martinez Cuesheet:




Thanks to Jozeg from Tribalmixes for recording the mix
Thanks to herre, herogee, houseystuff and nikolic for tracklists and cuesheets

PM skahound/hos with additions and/or changes to tracklists and cuesheets.